Loading...
Error

Скачать Рухнувшие Небеса (Сошедшие с небес) / Falling Skies (сезон 04) (Грег Биман, Холли Дэйл) [2014, боевик, фантастика, триллер, WEB-DL] [720p] MVO (LostFilm) торрент без регистрации

 
Статистика раздачи
Размер:  17,02 GB   |    Скачан:  157 раз

Полного источника не было: 20 минут

 
Автор Сообщение

МихаНЕзатор

[] 

Рухнувшие Небеса (Сошедшие с небес) / Falling Skies


Год выпуска: 2014
Страна: США, Канада
Жанр: Боевик, Фантастика, Триллер
Продолжительность: 00:43:00
Перевод: Профессиональный (многоголосый закадровый) LostFilm
Русские субтитры: нет
Режиссёр: Грег Биман, Холли Дэйл

В ролях: Ноа Уайли, Максим Найт, Сейшелл Гэбриел, Терри О’Куинн, Коннор Джессуп, Питер Шинкода, Дрю Рой, Мун Бладгуд, Уилл Пэттон, Сара Картер, Колин Каннингэм и др.

Описание: В результате инопланетного вторжения на Землю один из сыновей профессора истории Тома Мэйсона попадает в плен, а его жена гибнет. Она оказалась одной из миллионов людей, погибших от рук пришельцев. Люди, которым посчастливилось остаться в живых, вступают в партизанские отряды, объединяются для оказания сопротивления захватчикам.
Землю атакуют два вида инопланетян – прямоходящие, прекрасно вооруженные роботы Mechs и насекомоподобные Skitters. Людям приходится несладко, а борьба с незваными гостями становится все сложнее из-за того, что последние используют современное оборудование, с помощью которого можно легко определить местонахождение больших групп людей. Именно поэтому остается одна надежда на партизан, которые боролись с противником небольшими группами. Немалых усилий, а часто и человеческих жизней стоит выявление слабых сторон захватчиков.



Качество: WEB-DL 720p
Формат: MKV
Видео: AVC High@L4.0, 1280x718, [16:9], 23,976 fps, ~4000 kb/s
Аудио: Rus: AAC, 2 ch, 48,0 КГц, 128 Кбит/сек - многоголосый закадровый

АНОНСЫ ПОПУЛЯРНЫХ РАЗДАЧ


Торент обновлён, добавлена 12-я серия!

01. Призрак в машине (Ghost in the Machine)
02. Глаз (The Eye)
03. Исход (Exodus)
04. Эволюция или смерть (Evolve or Die)
05. Войны разума (Mind Wars)
06. Третий выход (Door Number Three)
07. Бойня в субботний вечер (Saturday Night Massacre)
08. Надежда (A Thing with Feathers)
09. Пока смерть не разлучит нас (Till Death Do Us Part)
10. Жребий (Drawing Straws)
11. Причуды космоса (Space Oddity)
12. Далёкая цель (Shoot the Moon)
Общее
Полное имя : D:\Михаил\Falling.Skies.(S04).LF\Falling.Skies.S04E01.720p.WEB.rus.LostFilm.TV.mp4
Формат : MPEG-4
Профиль формата : Base Media
Идентификатор кодека : isom
Размер файла : 1,23 Гбайт
Продолжительность : 42 м.
Режим общего битрейта : Переменный
Общий поток : 4147 Кбит/сек
Коллекция : Сошедшие с небес
Сезон : 4
Альбом : Сошедшие с небес, Сезон 4
Альбом/Исполнитель : Сошедшие с небес
Часть : 1
Часть/Положение : 4
Трек : Призрак в машине
Трек/Положение : 1
Исполнитель : Сошедшие с небес
Жанр : Sci-Fi & Fantasy
Тип содержимого : TV Show
Дата записи : 2014
Дата кодирования : UTC 2014-06-21 21:25:06
Дата пометки : UTC 2014-06-21 21:25:06
Программа кодирования : Yamb 2.1.0.0 []http://yamb.unite-video.com] / LostCoder
Правообладатель : LostFilm.TV (c)
Примечание : В результате инопланетное вторжения на Землю один из сыновей профессора истории Тома Мэйсона попадает в плен, а жена гибнет. Она оказалась одной из миллионов людей, ставших жертвами пришельцев. Люди, которым повезло выжить, вступают в партизанские отряды,
Part_ID : 401
Видео
Идентификатор : 1
Формат : AVC
Формат/Информация : Advanced Video Codec
Профиль формата : High@L3.1
Параметр CABAC формата : Нет
Параметр ReFrames формата : 2 кадра
Идентификатор кодека : avc1
Идентификатор кодека/Информация : Advanced Video Coding
Продолжительность : 42 м.
Битрейт : 4000 Кбит/сек
Максимальный битрейт : 13,5 Мбит/сек
Ширина : 1280 пикселей
Высота : 718 пикселей
Соотношение сторон : 16:9
Режим частоты кадров : Переменный
Частота кадров : 23,976 кадра/сек
Минимальная частота кадров : 23,974 кадра/сек
Максимальная частота кадров : 23,981 кадра/сек
Цветовое пространство : YUV
Субдискретизация насыщенности : 4:2:0
Битовая глубина : 8 бит
Тип развёртки : Прогрессивная
Бит/(Пиксели*Кадры) : 0.182
Размер потока : 1,19 Гбайт (97%)
Библиотека кодирования : x264 core 112 r1834 a51816a
Настройки программы : cabac=0 / ref=3 / deblock=1:0:0 / analyse=0x1:0x111 / me=hex / subme=7 / psy=1 / psy_rd=1.00:0.00 / mixed_ref=1 / me_range=16 / chroma_me=1 / trellis=1 / 8x8dct=0 / cqm=0 / deadzone=21,11 / fast_pskip=1 / chroma_qp_offset=-2 / threads=6 / sliced_threads=0 / nr=0 / decimate=1 / interlaced=0 / constrained_intra=0 / bframes=3 / b_pyramid=2 / b_adapt=1 / b_bias=0 / direct=1 / weightb=1 / open_gop=0 / weightp=2 / keyint=250 / keyint_min=25 / scenecut=40 / intra_refresh=0 / rc_lookahead=40 / rc=abr / mbtree=1 / bitrate=4000 / ratetol=1.0 / qcomp=0.60 / qpmin=0 / qpmax=51 / qpstep=4 / vbv_maxrate=5000 / vbv_bufsize=2000 / ip_ratio=1.40 / aq=1:1.00 / nal_hrd=none
Язык : English
Дата пометки : UTC 2014-06-21 21:29:00
Основные цвета : BT.709
Характеристики трансфера : BT.709
Коэффициенты матрицы : BT.709
Аудио
Идентификатор : 2
Формат : AAC
Формат/Информация : Advanced Audio Codec
Профиль формата : LC
Идентификатор кодека : 40
Продолжительность : 42 м.
Вид битрейта : Переменный
Битрейт : 128 Кбит/сек
Максимальный битрейт : 228 Кбит/сек
Каналы : 2 канала
Расположение каналов : Front: L R
Частота : 48,0 КГц
Метод сжатия : С потерями
Размер потока : 38,8 Мбайт (3%)
Дата кодирования : UTC 2014-06-21 21:28:58
Дата пометки : UTC 2014-06-21 21:29:00



Скачать Рухнувшие.Небеса.(Сошедшие.с.небес).Falling.Skies.(сезон.04).(Грег.Биман.Холли.Дэйл).[2014.боевик.фантастика.триллер.WEB-DL].[720p].MVO.(LostFilm).torrent без регистрации
Золото ЗОЛОТАЯ РАЗДАЧА! СКАЧАННОЕ НЕ ЗАСЧИТЫВАЕТСЯ! Золото
Дата: Зарегистрирован   [ Тип: внутренний ] Как тут cкачать?
MAGNET ссылка
MAGNET ссылка


Скачать .torrent

44 KB

Статус: проверено DHT
Скачан: торрент - 157 раз, раздача полностью - 50 раз
Размер: 17,02 GB
Оценка:  5 (Голосов: 2)
Поблагодарили: 4
Поделиться ссылкой на эту раздачу с друзьями:
В контактеFacebookОдноклассникиTwitterLivejournalМой МирLiveinternet
 

 
Показать сообщения:    


Вы не можете начинать темы
Вы не можете отвечать на сообщения
Вы не можете редактировать свои сообщения
Вы не можете удалять свои сообщения
Вы не можете голосовать в опросах
Вы не можете прикреплять файлы к сообщениям
Вы можете скачивать файлы