Loading...
Error

Скачать Череп и кости / Crossbones (сезон 01) (Дэниэл Эттиэс, Киаран Доннелли, Деран Сарафян) [2014, приключения, драма, WEB-DL] [1080p] [MVO (AlexFilm)] торрент без регистрации

 
Статистика раздачи
Размер:  15,48 GB   |    Скачан:  265 раз
Сидов:  1  [  0 KB/s  ]  
 
Автор Сообщение

МихаНЕзатор

[] 

Информация о фильме
Название: Череп и кости
Оригинальное название: Crossbones
Год выхода: 2014
Жанр: приключения, драма
Режиссер: Дэниэл Эттиэс, Киаран Доннелли, Деран Сарафян


В ролях: Джон Малкович, Трэйси Айфичор, Ясмин Эл Массри, Дэвид Хофлин, Эзра Баззингтон, Лорен Шоу, Джулиан Сэндс, Натали Блэр, Генри Херфорд, Айми Маллинз



О фильме: 1715 год. Один из Багамский островов Нью-Провиденс. Здесь появилась первая функционирующая демократия в Америке. Дьявольский пират Эдвард Тич, он же Черная Борода, господствует здесь над нацией воров, преступников и злодеев моряков. Чтобы получить контроль над этим устрашающим обществом, опытного убийцу Тома Лоу посылают убить Черную Бороду.







Страна: США
Студия: NBC
Продолжительность: 00:51:00
Перевод: Профессиональный (многоголосый, закадровый) AlexFilm



Файл
Кодек: H.264
Качество: WEB-DL 1080p
Видео: 1920x1080, 23.976 fps, 4900 kbps
Звук: Аудио кодек: AC3
Аудио Rus: 48 kHz, AC3, 6 ch, 384 kbps
Аудио Eng: 48 kHz, AC3, 6 ch, 384 kbps



Релиз от:
Перевод: Константин Кривоногов
Монтаж и сведение звука: Михаил Шорыгин
Роли озвучивали: Евгения Тихонова, Александр Воронов, Михаил Суслов, Владимир Курдов, Сергей Пономарёв


АНОНСЫ ПОПУЛЯРНЫХ РАЗДАЧ


28.09.2014 г. торент обновлён, добавлена 10-я серия!
01. Владения дьявола / The Devil's Dominion
02. Уговор / The Covenant
03. Человек, убивший Чёрную Бороду / The Man Who Killed Blackbeard
General
Format : Matroska
Format version : Version 4 / Version 2
File size : 2.02 GiB
Duration : 50mn 17s
Overall bit rate : 5 752 Kbps
Movie name : Crossbones 1x01 The Devil's Dominion @ AlexFilm
Encoded date : UTC 2014-06-02 23:31:12
Writing application : mkvmerge v6.6.0 ('The Edge Of The In Between') built on Dec 1 2013 17:55:00
Writing library : libebml v1.3.0 + libmatroska v1.4.1

Video
ID : 1
Format : AVC
Format/Info : Advanced Video Codec
Format profile : High@L4.0
Format settings, CABAC : Yes
Format settings, ReFrames : 4 frames
Codec ID : V_MPEG4/ISO/AVC
Duration : 50mn 17s
Bit rate : 4 869 Kbps
Width : 1 920 pixels
Height : 1 080 pixels
Display aspect ratio : 16:9
Frame rate mode : Constant
Frame rate : 23.976 fps
Color space : YUV
Chroma subsampling : 4:2:0
Bit depth : 8 bits
Scan type : Progressive
Bits/(Pixel*Frame) : 0.098
Stream size : 1.71 GiB (85%)
Language : English
Default : Yes
Forced : No
Color primaries : BT.709
Transfer characteristics : BT.709
Matrix coefficients : BT.709

Audio #1
ID : 2
Format : AC-3
Format/Info : Audio Coding 3
Mode extension : CM (complete main)
Format settings, Endianness : Big
Codec ID : A_AC3
Duration : 50mn 17s
Bit rate mode : Constant
Bit rate : 384 Kbps
Channel(s) : 6 channels
Channel positions : Front: L C R, Side: L R, LFE
Sampling rate : 48.0 KHz
Bit depth : 16 bits
Compression mode : Lossy
Stream size : 138 MiB (7%)
Title : DD5.1 AlexFilm
Language : Russian
Default : Yes
Forced : No

Audio #2
ID : 3
Format : AC-3
Format/Info : Audio Coding 3
Mode extension : CM (complete main)
Format settings, Endianness : Big
Codec ID : A_AC3
Duration : 50mn 17s
Bit rate mode : Constant
Bit rate : 384 Kbps
Channel(s) : 6 channels
Channel positions : Front: L C R, Side: L R, LFE
Sampling rate : 48.0 KHz
Bit depth : 16 bits
Compression mode : Lossy
Stream size : 138 MiB (7%)
Title : DD5.1 Original
Language : English
Default : No
Forced : No
Когда раздача ведётся путём добавления новых серий, при каждом добавлении создётся новый торрент. Чтобы начать докачку новой серии, пользователям необходимо сделать следующее:
(1) остановить скачивание,
(2) удалить старый торрент у себя из клиента (старые серии удалять не надо),
(3) скачать новый торрент и запустить его у себя в клиенте вместо старого, при этом указать клиенту путь в старую папку, куда и должно происходить скачивание новых серий.
Ваш клиент при этом должен произвести хеширование (проверку) старой папки (если не производит сам - помогите ему сделать это), и будет докачивать только те серии, которых у вас ещё нет. Старые серии при этом не удаляются, а продолжают раздаваться!
Eсли вы уже удалили старые серии, то предотвратить повторную закачку старых серий можно, отжав галочку в соответсвующих местах при запуске нового торрента. По возможности, желательно не удалять старые серии как можно дольше, чтобы релизёр не столько продолжал раздавать старые серии, а смог сконцентрироваться на новых.



Скачать Череп.и.кости.Crossbones.(сезон.01).(Дэниэл.Эттиэс.Киаран.Доннелли.Деран.Сарафян).[2014.приключения.драма.WEB-DL].[1080p].[MVO.(AlexFilm)].torrent без регистрации
Золото ЗОЛОТАЯ РАЗДАЧА! СКАЧАННОЕ НЕ ЗАСЧИТЫВАЕТСЯ! Золото
Дата: Зарегистрирован   [ Тип: внутренний ] Как тут cкачать?
MAGNET ссылка
MAGNET ссылка


Скачать .torrent

79 KB

Статус: проверено DHT
Скачан: торрент - 265 раз, раздача полностью - 25 раз
Размер: 15,48 GB
Оценка:  - (Голосов: 0)
Поблагодарили: 1
Поделиться ссылкой на эту раздачу с друзьями:
В контактеFacebookОдноклассникиTwitterLivejournalМой МирLiveinternet
 

 

МихаНЕзатор

[] 

Раздача обновлена
 
Показать сообщения:    


Вы не можете начинать темы
Вы не можете отвечать на сообщения
Вы не можете редактировать свои сообщения
Вы не можете удалять свои сообщения
Вы не можете голосовать в опросах
Вы не можете прикреплять файлы к сообщениям
Вы можете скачивать файлы