Loading...
Error

Скачать Игра по-крупному / War, Inc. (Джошуа Сэфтел / Joshua Seftel) [2008 г., Триллер, Комедия, HDRip] [AVO] (А.Карповский) торрент без регистрации

 
Статистика раздачи
Размер:  1,46 GB   |    Скачан:  107 раз
Сидов:  1  [  0,5 KB/s  ]   Личеров:  1  [  0 KB/s  ]  
 
Автор Сообщение

leon030982

[] 

Игра по-крупному / War, Inc.


Год выпуска: 2008
Страна: США
Жанр: Триллер, Комедия
Продолжительность: 01:46:52
Перевод: Авторский (одноголосый, закадровый)[А.Карповский]
Cубтитры: нет

Режиссер: Джошуа Сэфтел / Joshua Seftel

В ролях: Джон Кьюсак /John Cusack/, Хилари Дафф /Hilary Duff/, Мариса Томей /Marisa Tomei/, Джоан Кьюсак /Joan Cusack/, Дэн Эйкройд /Dan Aykroyd/, Сергей Трифунович /Sergej Trifunovic

Описание: Мощные транснациональные корпорации имеют не только огромные активы. Они располагают и мощными «частными армиями», которые способны вести «хорошую» войну в любой части «третьего мира». Брэнд Хаузер - супер-агент корпорации «Тамерлан». Устранив в Канаде людей, неугодных его боссам, он уже вскоре - в жаркой азиатской стране Туракистан, охваченной междоусобной войной и оккупированной войсками «Тамерлана». Здесь Хаузер должен устранить видного местного деятеля, используя как прикрытие большое шоу, кульминацией которого должна стать свадьба поп-звезды с сынком местного магната.
Но на этот раз хаос, в который корпорация «Тамерлан» погрузила несчастную страну, выводит из себя и невозмутимого супермена. К тому же его сердце начинает разрываться между двумя возлюбленными… Когда же выясняется, что, покинув много лет назад ЦРУ, он на самом деле все равно работал на «подонков из Лэнгли», Брэнд начинает свою собственную войну!




Исходник видео:
Качество: HDRip
Формат: AVI
Видео кодек: XviD
Аудио кодек: AC3
Видео: 720x304 (2.37:1), 23.976 fps, XviD build 50 ~1564 kbps avg, 0.30 bit/pixel
Аудио: 48 kHz, AC3 Dolby Digital, 3/2 (L,C,R,l,r) + LFE ch, ~384.00 kbps avg

Цитата:

За перевод, данного фильма у Антона Карповского, выражается благодарность пользователям форума hdtracker: [b]Dr. Destructo, KpucTo161, Role, SavineX, ZeRoNe, zeleniydzhan, MeGUI, Guyver, Wolf_Larsen, feldeger, vadamk, mamachucha66, Xerman13, shtift, Jiraya87, arvideo.
[/b]
Формат : AVI
Формат/Информация : Audio Video Interleave
Размер файла : 1,46 Гбайт
Продолжительность : 1 ч. 46 м.
Общий поток : 1958 Кбит/сек
Программа кодирования : VirtualDubMod 1.5.4.1 (build 2178/release)
Библиотека кодирования : VirtualDubMod build 2178/release
Видео
Идентификатор : 0
Формат : MPEG-4 Visual
Профиль формата : Advanced Simple@L5
Параметр BVOP формата : 1
Параметр QPel формата : Нет
Параметр GMC формата : Без точки перехода
Параметр матрицы формата : Default (MPEG)
Идентификатор кодека : XVID
Идентификатор кодека/Подсказка : XviD
Продолжительность : 1 ч. 46 м.
Битрейт : 1565 Кбит/сек
Ширина : 720 пикселей
Высота : 304 пикселя
Соотношение сторон : 2,35:1
Частота кадров : 23,976 кадра/сек
Цветовое пространство : YUV
Субдискретизация насыщенности : 4:2:0
Битовая глубина : 8 бит
Тип развёртки : Прогрессивная
Метод сжатия : С потерями
Бит/(Пиксели*Кадры) : 0.298
Размер потока : 1,17 Гбайт (80%)
Библиотека кодирования : XviD 1.2.1 (UTC 2008-12-04)
Аудио
Идентификатор : 1
Формат : AC-3
Формат/Информация : Audio Coding 3
Расширение режима : CM (complete main)
Параметр Endianness формата : Big
Идентификатор кодека : 2000
Продолжительность : 1 ч. 46 м.
Вид битрейта : Постоянный
Битрейт : 384 Кбит/сек
Каналы : 6 каналов
Расположение каналов : Front: L C R, Side: L R, LFE
Частота : 48,0 КГц
Битовая глубина : 16 бит
Метод сжатия : С потерями
Размер потока : 294 Мбайт (20%)
Выравнивание : Разделение по промежуткам
Продолжительность промежутка : 42 мс. (1,00 видеокадр)
Время предзагрузки промежутка : 500 мс.



Скачать Игра.по-крупному.War.Inc.(Джошуа.Сэфтел.Joshua.Seftel).[2008.г.Триллер.Комедия.HDRip].[AVO].(А.Карповский).torrent без регистрации
Золото ЗОЛОТАЯ РАЗДАЧА! СКАЧАННОЕ НЕ ЗАСЧИТЫВАЕТСЯ! Золото
Дата: Зарегистрирован   [ Тип: внутренний ] Как тут cкачать?
MAGNET ссылка
MAGNET ссылка


Скачать .torrent

15 KB

Статус: проверено DHT
Скачан: торрент - 107 раз, раздача полностью - 49 раз
Размер: 1,46 GB
Оценка:  - (Голосов: 0)
Поблагодарили: 2
Поделиться ссылкой на эту раздачу с друзьями:
В контактеFacebookОдноклассникиTwitterLivejournalМой МирLiveinternet
 

 
Показать сообщения:    


Вы не можете начинать темы
Вы не можете отвечать на сообщения
Вы не можете редактировать свои сообщения
Вы не можете удалять свои сообщения
Вы не можете голосовать в опросах
Вы не можете прикреплять файлы к сообщениям
Вы можете скачивать файлы