Loading...
Error

Скачать Затерянные в космосе / Lost in Space (Стивен Хопкинс) [1998, фантастика, боевик, триллер, приключения, BDRip-AVC] [Dub]+[MVO]+[AVO]+[Оригинал]+[Sub]x2 торрент без регистрации

 
Статистика раздачи
Размер:  2,91 GB   |    Скачан:  142 раза
Сидов:  9  [  0 KB/s  ]  
 
Автор Сообщение

Marsianka

[] 

«Большое космическое приключение»

Страна: США
Производство: Irwin Allen Productions, New Line Cinema, Prelude Pictures, Saltire Entertainment
Жанр: фантастика, боевик, триллер, приключения
Год выпуска: 1998
Продолжительность: 02:10:14

Перевод: Профессиональный (полное дублирование), Профессиональный (многоголосый, закадровый) R5, Aвторский (одноголосый закадровый) Юрий Живов
Оригинальная аудиодорожка: английский
Cубтитры: русский, английский

Режиссер: Стивен Хопкинс / Stephen Hopkins

В ролях:
Уильям Хёрт, Мими Роджерс, Лэйси Чэберт, Хэзер Грэм, Джек Джонсон, Гари Олдман, Мэтт ЛеБлан, Джаред Харрис, Марк Годдар, Ленни Джеймс...

Роли дублировали:
Алексей Золотницкий, Светлана Старикова, Нина Лунева, Нина Тобилевич, Татьяна Весёлкина...

Описание:
Действие происходит в 2058 году, когда жить на Земле людям осталось не более двадцати лет — истощилось все. Выдающийся ученый Джон Робинсон и его семья отправляются на суперсовременном звездолете на далекую планету Альфа-прим, пригодную для обитания, чтобы построить там гиперворота, через которые будет осуществлена эвакуация человечества. Экстремисты подсылают на борт коварного доктора Смита, чтобы тот уничтожил семью Робинсонов и сам корабль. Случайно оставшись на корабле, чтобы не погибнуть, Смит будит Робинсонов и майора Уэста, лихого боевого пилота. Чтобы избежать столкновения с Солнцем, майор включает гипердвигатель, и звездолет оказывается затерянным в неизвестной доселе части Космоса…

Исходник: BDRemux 1080p
Тип релиза: BDRip-AVC
Контейнер: MKV

Видео: 1024x426 (2.40:1), 23,976 fps, H264 ~ 1656 kbps avg, 0.158 bit/pixel
Аудио: 48 kHz, Dolby Digital AC3 2.0, 192 kbps DUB
Аудио: 48 kHz, Dolby Digital AC3 5.1, 448 kbps MVO
Аудио: 48 kHz, Dolby Digital AC3 5.1, 448 kbps Живов
Аудио: 48 kHz, Dolby Digital AC3 5.1, 448 kbps Английский
Оригинальная навигация по главам: есть
Субтитры: SoftSub (srt)
Раздача от:

Общее
Полное имя : Zaterjannye.v.kosmose.1998.BDRip-AVC_[New-team]_by_AVP_Studio.mkv
Формат : Matroska
Версия формата : Version 4 / Version 2
Размер файла : 2,91 Гбайт
Продолжительность : 2 ч. 10 м.
Общий поток : 3194 Кбит/сек
Название фильма : Zaterjannye.v.kosmose.1998.BDRip-AVC_[New-team]_by_AVP_Studio
Дата кодирования : UTC 2014-06-27 21:45:28
Программа кодирования : mkvmerge v6.9.1 ('Blue Panther') 64bit built on Apr 18 2014 18:23:38
Библиотека кодирования : libebml v1.3.0 + libmatroska v1.4.1

Видео
Идентификатор : 1
Формат : AVC
Формат/Информация : Advanced Video Codec
Профиль формата : High@L4.1
Параметр CABAC формата : Да
Параметр ReFrames формата : 8 кадров
Идентификатор кодека : V_MPEG4/ISO/AVC
Продолжительность : 2 ч. 10 м.
Битрейт : 1656 Кбит/сек
Ширина : 1024 пикселя
Высота : 426 пикселей
Соотношение сторон : 2,40:1
Режим частоты кадров : Постоянный
Частота кадров : 23,976 кадра/сек
Цветовое пространство : YUV
Субдискретизация насыщенности : 4:2:0
Битовая глубина : 8 бит
Тип развёртки : Прогрессивная
Бит/(Пиксели*Кадры) : 0.158
Размер потока : 1,45 Гбайт (50%)
Заголовок : Источник BDRemux
Библиотека кодирования : x264 core 138 r2356 a1d3d17
Настройки программы : cabac=1 / ref=8 / deblock=1:-3:-2 / analyse=0x3:0x113 / me=umh / subme=10 / psy=1 / psy_rd=1.00:0.05 / mixed_ref=1 / me_range=32 / chroma_me=1 / trellis=2 / 8x8dct=1 / cqm=0 / deadzone=21,11 / fast_pskip=0 / chroma_qp_offset=-3 / threads=6 / lookahead_threads=1 / sliced_threads=0 / nr=0 / decimate=0 / interlaced=0 / bluray_compat=0 / constrained_intra=0 / bframes=8 / b_pyramid=2 / b_adapt=2 / b_bias=0 / direct=3 / weightb=1 / open_gop=0 / weightp=2 / keyint=240 / keyint_min=24 / scenecut=40 / intra_refresh=0 / rc_lookahead=40 / rc=2pass / mbtree=1 / bitrate=1656 / ratetol=1.0 / qcomp=0.60 / qpmin=0 / qpmax=69 / qpstep=4 / cplxblur=20.0 / qblur=0.5 / ip_ratio=1.40 / aq=1:1.00
Язык : English
Default : Да
Forced : Нет

Аудио #1
Идентификатор : 2
Формат : AC-3
Формат/Информация : Audio Coding 3
Расширение режима : CM (complete main)
Параметр Endianness формата : Big
Идентификатор кодека : A_AC3
Продолжительность : 2 ч. 10 м.
Вид битрейта : Постоянный
Битрейт : 192 Кбит/сек
Каналы : 2 канала
Расположение каналов : Front: L R
Частота : 48,0 КГц
Битовая глубина : 16 бит
Метод сжатия : С потерями
Размер потока : 179 Мбайт (6%)
Заголовок : Источник BDRemux Dolby Digital 2,0 192 kbps DUB
Язык : Russian
Default : Да
Forced : Нет

Аудио #2
Идентификатор : 3
Формат : AC-3
Формат/Информация : Audio Coding 3
Расширение режима : CM (complete main)
Параметр Endianness формата : Big
Идентификатор кодека : A_AC3
Продолжительность : 2 ч. 10 м.
Вид битрейта : Постоянный
Битрейт : 448 Кбит/сек
Каналы : 6 каналов
Расположение каналов : Front: L C R, Side: L R, LFE
Частота : 48,0 КГц
Битовая глубина : 16 бит
Метод сжатия : С потерями
Размер потока : 417 Мбайт (14%)
Заголовок : Источник BDRemux Dolby Digital 5,1 448 kbps MVO
Язык : Russian
Default : Нет
Forced : Нет

Аудио #3
Идентификатор : 4
Формат : AC-3
Формат/Информация : Audio Coding 3
Расширение режима : CM (complete main)
Параметр Endianness формата : Big
Идентификатор кодека : A_AC3
Продолжительность : 2 ч. 10 м.
Вид битрейта : Постоянный
Битрейт : 448 Кбит/сек
Каналы : 6 каналов
Расположение каналов : Front: L C R, Side: L R, LFE
Частота : 48,0 КГц
Битовая глубина : 16 бит
Метод сжатия : С потерями
Размер потока : 417 Мбайт (14%)
Заголовок : Источник BDRemux Dolby Digital 5,1 448 kbps Живов
Язык : Russian
Default : Нет
Forced : Нет

Аудио #4
Идентификатор : 5
Формат : AC-3
Формат/Информация : Audio Coding 3
Расширение режима : CM (complete main)
Параметр Endianness формата : Big
Идентификатор кодека : A_AC3
Продолжительность : 2 ч. 10 м.
Вид битрейта : Постоянный
Битрейт : 448 Кбит/сек
Каналы : 6 каналов
Расположение каналов : Front: L C R, Side: L R, LFE
Частота : 48,0 КГц
Битовая глубина : 16 бит
Метод сжатия : С потерями
Размер потока : 417 Мбайт (14%)
Заголовок : Источник BDRemux Dolby Digital 5,1 448 kbps
Язык : English
Default : Нет
Forced : Нет

Текст #1
Идентификатор : 6
Формат : UTF-8
Идентификатор кодека : S_TEXT/UTF8
Идентификатор кодека/Информация : UTF-8 Plain Text
Заголовок : Источник BDRemux SoftSub (srt)
Язык : Russian
Default : Нет
Forced : Нет

Текст #2
Идентификатор : 7
Формат : UTF-8
Идентификатор кодека : S_TEXT/UTF8
Идентификатор кодека/Информация : UTF-8 Plain Text
Заголовок : Источник BDRemux SoftSub (srt)
Язык : English
Default : Нет
Forced : Нет

Меню
00:00:00.000 : ru:Эпизод 01
00:04:22.135 : ru:Эпизод 02
00:07:19.564 : ru:Эпизод 03
00:09:22.852 : ru:Эпизод 04
00:12:01.804 : ru:Эпизод 05
00:13:24.261 : ru:Эпизод 06
00:17:58.993 : ru:Эпизод 07
00:20:30.395 : ru:Эпизод 08
00:25:34.282 : ru:Эпизод 09
00:34:02.331 : ru:Эпизод 10
00:36:20.177 : ru:Эпизод 11
00:42:01.727 : ru:Эпизод 12
00:47:20.670 : ru:Эпизод 13
00:54:52.205 : ru:Эпизод 14
01:07:23.872 : ru:Эпизод 15
01:12:06.780 : ru:Эпизод 16
01:19:19.546 : ru:Эпизод 17
01:25:33.294 : ru:Эпизод 18
01:31:20.057 : ru:Эпизод 19
01:38:26.149 : ru:Эпизод 20
01:44:45.237 : ru:Эпизод 21
01:51:49.911 : ru:Эпизод 22
01:57:08.479 : ru:Эпизод 23
02:00:04.197 : ru:Эпизод 24



Скачать Затерянные.в.космосе.Lost.in.Space.(Стивен.Хопкинс).[1998.фантастика.боевик.триллер.приключения.BDRip-AVC].[Dub]+[MVO]+[AVO]+[Оригинал]+[Sub]x2.torrent без регистрации
Золото ЗОЛОТАЯ РАЗДАЧА! СКАЧАННОЕ НЕ ЗАСЧИТЫВАЕТСЯ! Золото
Дата: Зарегистрирован   [ Тип: внешний ] Как тут cкачать?
MAGNET ссылка
MAGNET ссылка


Скачать .torrent

15 KB

Статус: проверено DHT
Скачан: торрент - 142 раз, раздача полностью - 149 раз
Размер: 2,91 GB
Оценка:  - (Голосов: 0)
Поблагодарили: 3
Поделиться ссылкой на эту раздачу с друзьями:
В контактеFacebookОдноклассникиTwitterLivejournalМой МирLiveinternet
 

 
Показать сообщения:    


Вы не можете начинать темы
Вы не можете отвечать на сообщения
Вы не можете редактировать свои сообщения
Вы не можете удалять свои сообщения
Вы не можете голосовать в опросах
Вы не можете прикреплять файлы к сообщениям
Вы можете скачивать файлы