Loading...
Error

Скачать Неуловимый / Anthony Zimmer (Жером Салль) [2005, триллер, драма, мелодрама, криминал, HDRip] [Dub] торрент без регистрации

 
Статистика раздачи
Размер:  744 MB   |    Скачан:  109 раз
Сидов:  1  [  0 KB/s  ]  
 
Автор Сообщение

Marsianka

[] 

Информация о фильме
Название: Неуловимый
Оригинальное название: Anthony Zimmer
Год выхода: 2005
Жанр: триллер, драма, мелодрама, криминал
Режиссер: Жером Салль / Jérôme Salle
В ролях: Софи Марсо, Иван Атталь, Сами Фрей, Жилль Лелуш, Даниэль Ольбрыхский, Самир Гесми, Димитри Рато, Никки Марб

О фильме:
Интерпол преследует неуловимого мошенника Энтони Циммера, специализирующегося на отмывании денег для русской мафии. Поймать Циммера стало вдесятеро трудней после того, как он сделал пластическую операцию и полностью изменил свою внешность. Теперь единственная ниточка к мошеннику — обворожительная красотка Кьяра, любовница Циммера.
Но Кьяра, понимая, что ее попытаются использовать, заводит интрижку с простоватым парнем Франсуа. Некоторое сходство Франсуа и Циммера является вполне достаточным основанием и для спецслужб, и для мафии, чтобы попытаться убить Франсуа…



Страна: Франция
Продолжительность: 01:28:50
Перевод: Профессиональный (дублированный)

Файл
Кодек: XviD
Качество: HDRip
Видео: 672x288 (2.35:1), 23.976 fps, 1 034 Kbps, 0.223 Bits/(Pixel*Frame)
Звук: MP3, 48 KHz, 128 Kbps, 2 channels

Семпл
General
Complete name : D:Neulovimyj.2005.HDRip.XviD.744mb.avi
Format : AVI
Format/Info : Audio Video Interleave
File size : 744 MiB
Duration : 1h 28mn
Overall bit rate : 1 171 Kbps
Writing application : VirtualDubMod 1.5.10.2 (build 2540/release)
Writing library : VirtualDubMod build 2540/release
Video
ID : 0
Format : MPEG-4 Visual
Format profile : Advanced Simple@L5
Format settings, BVOP : 1
Format settings, QPel : No
Format settings, GMC : No warppoints
Format settings, Matrix : Default (MPEG)
Codec ID : XVID
Codec ID/Hint : XviD
Duration : 1h 28mn
Bit rate : 1 034 Kbps
Width : 672 pixels
Height : 288 pixels
Display aspect ratio : 2.35:1
Frame rate : 23.976 fps
Color space : YUV
Chroma subsampling : 4:2:0
Bit depth : 8 bits
Scan type : Progressive
Compression mode : Lossy
Bits/(Pixel*Frame) : 0.223
Stream size : 657 MiB (88%)
Writing library : XviD 1.2.1 (UTC 2008-12-04)
Audio
ID : 1
Format : MPEG Audio
Format version : Version 1
Format profile : Layer 3
Codec ID : 55
Codec ID/Hint : MP3
Duration : 1h 28mn
Bit rate mode : Constant
Bit rate : 128 Kbps
Channel(s) : 2 channels
Sampling rate : 48.0 KHz
Compression mode : Lossy
Stream size : 81.3 MiB (11%)
Alignment : Aligned on interleaves
Interleave, duration : 42 ms (1.00 video frame)
Interleave, preload duration : 504 ms
Writing library : LAME3.98r
Encoding settings : -m s -V 4 -q 2 -lowpass 17 -b 128











Скачать Неуловимый.Anthony.Zimmer.(Жером.Салль).[2005.триллер.драма.мелодрама.криминал.HDRip].[Dub].torrent без регистрации
Золото ЗОЛОТАЯ РАЗДАЧА! СКАЧАННОЕ НЕ ЗАСЧИТЫВАЕТСЯ! Золото
Дата: Зарегистрирован   [ Тип: внутренний ] Как тут cкачать?
MAGNET ссылка
MAGNET ссылка


Скачать .torrent

15 KB

Статус: проверено DHT
Скачан: торрент - 109 раз, раздача полностью - 14 раз
Размер: 744 MB
Оценка:  - (Голосов: 0)
Поблагодарили: 1
Поделиться ссылкой на эту раздачу с друзьями:
В контактеFacebookОдноклассникиTwitterLivejournalМой МирLiveinternet
 

 
Показать сообщения:    


Вы не можете начинать темы
Вы не можете отвечать на сообщения
Вы не можете редактировать свои сообщения
Вы не можете удалять свои сообщения
Вы не можете голосовать в опросах
Вы не можете прикреплять файлы к сообщениям
Вы можете скачивать файлы