Loading...
Error

Скачать Опасные пассажиры поезда 123 / The Taking of Pelham 1 2 3 (Тони Скотт) [2009, триллер, драма, криминал, BDRip-AVC] [Dub]+[VO] торрент без регистрации

 
Статистика раздачи
Размер:  3,04 GB   |    Скачан:  140 раз

Полного источника не было: 23 минуты

 
Автор Сообщение

Marsianka

[] 

Опасные пассажиры поезда 123 / The Taking of Pelham 1 2 3 (2009) BDRip-AVC | iPad | D
«Осторожно, двери закрываются...навсегда»


Название: Опасные пассажиры поезда 123
Оригинальное название: The Taking of Pelham 1 2 3
Год выхода: 2009
Жанр: триллер, драма, криминал
Режиссер: Тони Скотт
В ролях: Дензел Вашингтон, Джон Траволта, Луис Гузман, Victor Gojcaj, Джон Туртурро, Джеймс Гандольфини, Майкл Рисполи, Рамон Родригез, Сайда Аррика Экулона, Джон, Бенжамин Хикк

О фильме:
Вооруженные террористы захватывают поезд в нью-йоркском метро и требуют выкуп за пассажиров. Но даже если все их требования будут выполнены, много ли у заложников шансов остаться в живых?



Страна: США, Великобритания
Студия: Columbia Pictures, Metro-Goldwyn-Mayer (MGM), Relativity Media

Продолжительность: 01:45:55
Перевод: Русский дублированный профессиональный одноголосый закадровый

Файл
Кодек: H.264
Качество: BDRip [576p]
Видео: 1024x426 (2.40:1) at 23.976 fps, AVC at 3900 kbps
Звук:
1: АAС 2.0 160 kbps - Русский дублированный
Субтитры: отсутствуют

General
Complete name : I:modoutThe.Taking.of.Pelham.123.2009.576p.D.m4v
Format : MPEG-4
Codec ID : M4V
File size : 3.04 GiB
Duration : 1h 45mn
Overall bit rate mode : Variable
Overall bit rate : 4 109 Kbps
Movie name : Опасные пассажиры поезда 123
Performer : Tony Scott
Genre : Thriller
ContentType : Short Film
Deion : Вооруженные террористы захватывают поезд в нью-йоркском метро и требуют выкуп за пассажиров. Но даже если все их требования будут выполнены, много ли у заложников шансов остаться в живых?
Recorded date : UTC 2009-06-04 08:00:00
Encoded date : UTC 2014-07-01 12:04:00
Tagged date : UTC 2014-07-01 12:21:55
Copyright : Columbia Pictures, Metro-Goldwyn-Mayer (MGM), Relativity Media
Cover : Yes
Comment : «Осторожно, двери закрываются...навсегда»
ContentRating : mpaa|R|400|

Title/Sort : The Taking Of Pelham 1 2 3 (2009)
LongDeion : Вооруженные террористы захватывают поезд в нью-йоркском метро и требуют выкуп за пассажиров. Но даже если все их требования будут выполнены, много ли у заложников шансов остаться в живых?
AppleStoreCatalogID : 350929412
Vendor : Apple:vendor_id:2009-400582

Video
ID : 1
Format : AVC
Format/Info : Advanced Video Codec
Format profile : High@L4.1
Format settings, CABAC : Yes
Format settings, ReFrames : 10 frames
Codec ID : avc1
Codec ID/Info : Advanced Video Coding
Duration : 1h 45mn
Bit rate : 3 938 Kbps
Maximum bit rate : 16.0 Mbps
Width : 1 024 pixels
Height : 426 pixels
Display aspect ratio : 2.40:1
Frame rate mode : Constant
Frame rate : 23.976 fps
Color space : YUV
Chroma subsampling : 4:2:0
Bit depth : 8 bits
Scan type : Progressive
Bits/(Pixel*Frame) : 0.377
Stream size : 2.91 GiB (96%)
Title : The.Taking.of.Pelham.123
Language : English
Encoded date : UTC 2014-07-01 12:04:00
Tagged date : UTC 2014-07-01 12:04:22

Audio
ID : 2
Format : AAC
Format/Info : Advanced Audio Codec
Format profile : LC
Codec ID : 40
Duration : 1h 45mn
Bit rate mode : Variable
Bit rate : 162 Kbps
Maximum bit rate : 238 Kbps
Channel(s) : 2 channels
Channel positions : Front: L R
Sampling rate : 48.0 KHz
Compression mode : Lossy
Stream size : 123 MiB (4%)
Title : DUB
Language : Russian
Encoded date : UTC 2014-07-01 12:02:02
Tagged date : UTC 2014-07-01 12:04:22

Menu
ID : 3
Codec ID : text
Duration : 1h 45mn
Encoded date : UTC 2014-07-01 12:04:41
Tagged date : UTC 2014-07-01 12:04:41
Bit rate mode : CBR

x264 [info]: frame I:1484 Avg QP:14.99 size: 94208
x264 [info]: frame P:38980 Avg QP:19.43 size: 34411
x264 [info]: frame B:111912 Avg QP:21.49 size: 14719
x264 [info]: consecutive B-frames: 4.5% 5.1% 11.1% 28.4% 17.5% 24.4% 3.5% 1.5% 0.8% 2.4% 0.3% 0.1% 0.2%
x264 [info]: mb I I16..4: 17.9% 42.6% 39.5%
x264 [info]: mb P I16..4: 3.2% 13.3% 4.5% P16..4: 25.1% 31.3% 11.4% 3.9% 0.7% skip: 6.6%
x264 [info]: mb B I16..4: 0.3% 2.0% 0.6% B16..8: 36.1% 20.8% 4.1% direct: 7.9% skip:28.3% L0:38.1% L1:41.7% BI:20.2%
x264 [info]: 8x8 transform intra:62.6% inter:40.2%
x264 [info]: direct mvs spatial:100.0% temporal:0.0%
x264 [info]: coded y,uvDC,uvAC intra: 94.0% 75.2% 50.3% inter: 31.9% 17.1% 6.0%
x264 [info]: i16 v,h,dc,p: 6% 8% 18% 68%
x264 [info]: i8 v,h,dc,ddl,ddr,vr,hd,vl,hu: 11% 13% 8% 8% 11% 11% 12% 11% 13%
x264 [info]: i4 v,h,dc,ddl,ddr,vr,hd,vl,hu: 11% 13% 6% 9% 13% 12% 13% 10% 13%
x264 [info]: i8c dc,h,v,p: 28% 29% 21% 22%
x264 [info]: Weighted P-Frames: Y:4.1% UV:2.4%
x264 [info]: ref P L0: 58.7% 10.3% 13.9% 5.7% 3.7% 2.6% 2.0% 1.1% 0.9% 0.9% 0.3% 0.0%
x264 [info]: ref B L0: 84.2% 7.3% 3.4% 1.6% 1.2% 0.9% 0.7% 0.4% 0.3%
x264 [info]: ref B L1: 94.5% 5.5%
x264 [info]: kb/s:3937.92


Sort Name: The Taking Of Pelham 1 2 3 (2009)
XID: Apple:vendor_id:2009-400582
Content ID: 350929412
Copyright: Columbia Pictures, Metro-Goldwyn-Mayer (MGM), Relativity Media
ScreenWriters: Брайан Хелгеленд, Джон Гоуди
Producers: Тодд Блэк, Джейсон Блюменталь, Тони Скотт
Director: Тони Скотт
Cast: Дензел Вашингтон, Джон Траволта, Джон Туртурро, Джеймс Гандольфини, Майкл Рисполи, Луис Гусман, Рамон Родригес, Виктор Гойцай, Роберт Ватаж, Джон Бенжамин Хикки // Denzel Washington (Walter Garber), John Travolta (Ryder), Luis Guzmán (Phil Ramos), Victor Gojcaj (Bashkim), John Turturro (Camonetti), James Gandolfini (Mayor), Michael Rispoli (John Johnson), Ramón Rodríguez (Delgado), Chance Kelly (ESU Captain)
Rating: R
Long Deion: Вооруженные террористы захватывают поезд в нью-йоркском метро и требуют выкуп за пассажиров. Но даже если все их требования будут выполнены, много ли у заложников шансов остаться в живых?
Deion: Вооруженные террористы захватывают поезд в нью-йоркском метро и требуют выкуп за пассажиров. Но даже если все их требования будут выполнены, много ли у заложников шансов остаться в живых?
Release Date: 2009-06-04T08:00:00Z
Genre: Thriller
Artist: Tony Scott
Name: Опасные пассажиры поезда 123
Comments: «Осторожно, двери закрываются...навсегда»



Скачать Опасные.пассажиры.поезда.123.The.Taking.of.Pelham.1.2.3.(Тони.Скотт).[2009.триллер.драма.криминал.BDRip-AVC].[Dub]+[VO].torrent без регистрации
Золото ЗОЛОТАЯ РАЗДАЧА! СКАЧАННОЕ НЕ ЗАСЧИТЫВАЕТСЯ! Золото
Дата: Зарегистрирован   [ Тип: внутренний ] Как тут cкачать?
MAGNET ссылка
MAGNET ссылка


Скачать .torrent

16 KB

Статус: проверено DHT
Скачан: торрент - 140 раз, раздача полностью - 29 раз
Размер: 3,04 GB
Оценка:  - (Голосов: 0)
Поблагодарили: 3
Поделиться ссылкой на эту раздачу с друзьями:
В контактеFacebookОдноклассникиTwitterLivejournalМой МирLiveinternet
 

 
Показать сообщения:    


Вы не можете начинать темы
Вы не можете отвечать на сообщения
Вы не можете редактировать свои сообщения
Вы не можете удалять свои сообщения
Вы не можете голосовать в опросах
Вы не можете прикреплять файлы к сообщениям
Вы можете скачивать файлы