Loading...
Error

Скачать Череп и кости / Crossbones (Сезон 1, Серии 1-9 из 9) (Дэвид Слэйд, Киаран Доннелли, Дэниэл Эттиэс, Терри Макдонаф, Деран Сарафян, Стив Шилл) [2014, Драма, приключения, экранизация, WEBDLRip-AVC 1080р] [DD5.1] [MVO] [AlexFilm] торрент без регистрации

 
Статистика раздачи
Размер:  20,75 GB   |    Скачан:  309 раз
Сидов:  1  [  0 KB/s  ]  
 
Автор Сообщение

Nikolai.Baranov

[] 






Череп и кости / Crossbones




Год выпуска: 2014
Выпущено: США, Universal TV
Жанр: Драма, приключения, экранизация
Продолжительность: 00:52:00
Сезон: 1
Серия: 1-9
Количество серий в сезоне: 9
Озвучка:Профессиональная многоголосая закадровая(AlexFilm)Евгения Тихонова,
Александр Воронов,
Михаил Суслов,
Владимир Курдов,
Сергей Пономарёв,Перевод: Константин Кривоногов

Субтитры: НЕТ

Официальный сайт сериала



Режиссер: Дэвид Слэйд, Киаран Доннелли, Дэниэл Эттиэс, Терри Макдонаф, Деран Сарафян, Стив Шилл

В ролях: Джон Малкович, Ричард Койл, Клер Фой, Ясмин Эл Массри, Дэвид Хофлин, Крис Перфетти, Трэйси Айфичор, Питер Стеббингс, Джулиан Сэндс, Эзра Баззингтон, Генри Херфорд, Эмильен Де Фалько, Кевин Райан...


Очередной крутой пиратский сериал

Отличный сериал! Очень интересный и динамичный!

Прежде всего главную роль в нём исполнил актёр Джон Малкович, как и следовало ожидать он был неподражаем в роли пирата

Всем кто смотрел Черные паруса (Black Sails) наверняка понравится, хотя следует отметить что сериалы все таки абсолютно разные:

В случае с «Чёрными парусами» перед нами предстала разговорная, неторопливая и жестокая драма, рассказывающая предысторию всем известного «Острова сокровищ».

В основу «Черепа и костей» легла легенда о пирате по кличке Чёрная Борода, в миру известного как Эдвард Тич. Жестокости здесь чуть меньше, но она всё же есть. Тренд, случившийся после «Пиратов Карибского моря», которые стали самой главной семейной сагой последних 15 , теперь представляет зрителю других пиратов.

Сюжет этого проекта завязан на приключениях. Главным злодеем здесь является упомянутый Эдвард Тич. Своими дерзкими набегами на торговые суда он мешает ведению бизнеса в районе Багамских островов. Единственный вариант решения проблемы — убить пирата. Для этого король подсылает к Чёрной Бороде своего шпиона-киллера — находчивого Томаса Лоу (в исполнении Ричард Койла)

Вообще, сериал «Черепа и костей» — это проект канала NBC, который ставится по задумки Нила Кросса, до того ставшего автором идеи для сериала «Лютер»

Подытоживаем…


Качество : WEB-DLRip-AVC 1080p
Формат: MPEG-4
Видео кодек: H264
Видео: 7252ит/сек,1920х1080(16.9),в 25.000кадр/сек,AVC(Baseline@L4.0)(1Ref Frames)
Аудио кодек: AAC
Аудио Russian Dolby Digital 5.1:421Кбит/сек,48.0КГц,6каналов,AAC,(Version4)(LC)


Звуковая дорожка сделана путем наложения чистого голоса озвучивателей на центральный канал оригинальной дорожки. Качество идентично звуковой дорожке.



01 Владения дьявола (The Devil's Dominion)
02 Завет (The Covenant)
03 Человек, убивший Чёрную Бороду (The Man Who Killed Blackbeard)
04 Антуанетта (Antoinette)
05 Возвращение (The Return)
06 Дыра в голове (A Hole in the Head)
07 Попрошайка (Beggarman)
08 Череп и кости (Crossbones)
09 Чёрная борода (Blackbeard)



General
Полное имя : D:\Ф А Н Т А С Т И К А +П Р И К Л Ю Ч Е Н И Я + Ф Э Н Т А З И\Череп и кости\CROSSBONES_2014_S01_RUS[AlexFilm]_DD5.1_x264_Nikolai.Baranov_WEB-DLRip-AVC_(1080p)\Crossbones_2014_S01E01_RUS[AlexFilm]_DD5.1_x264_Nikolai.Baranov_WEB-DLRip-AVC_(1080p).mp4
Формат : MPEG-4
Профиль формата : Base Media
Идентификатор кодека : isom
Размер файла : 2.70 GiB
Продолжительность : 50mn 17s
Режим общего битрейта : Variable
Общий поток : 7 678 Kbps
Название фильма : Crossbones 1x01 The Devil's Dominion @ AlexFilm
Дата кодирования : UTC 2014-06-07 20:23:07
Дата пометки : UTC 2014-06-07 20:23:07
Программа кодирования : Lavf51.12.1

Video
Идентификатор : 1
Формат : AVC
Формат/Информация : Advanced Video Codec
Профиль формата : Baseline@L4.0
Параметр CABAC формата : No
Параметр ReFrames формата : 1 frame
Параметр GOP формата : M=1, N=12
Идентификатор кодека : avc1
Идентификатор кодека/Информация : Advanced Video Coding
Продолжительность : 50mn 17s
Вид битрейта : Variable
Битрейт : 7 252 Kbps
Максимальный битрейт : 10.5 Mbps
Ширина : 1 920 pixels
Высота : 1 080 pixels
Соотношение сторон : 16:9
Режим частоты кадров : Constant
Частота кадров : 25.000 fps
Частота кадров в оригинале : 24.000 fps
Цветовое пространство : YUV
Субдискретизация насыщенности : 4:2:0
Битовая глубина : 8 bits
Тип развёртки : Progressive
Бит/(Пиксели*Кадры) : 0.140
Размер потока : 2.55 GiB (94%)
Язык : English
Дата кодирования : UTC 2014-06-07 20:23:07
Дата пометки : UTC 2014-06-07 20:23:07

Audio
Идентификатор : 2
Формат : AAC
Формат/Информация : Advanced Audio Codec
Профиль формата : LC
Идентификатор кодека : 40
Продолжительность : 50mn 17s
Вид битрейта : Variable
Битрейт : 421 Kbps
Каналы : 2 channels
Channel(s)_Original : 6 channels
Расположение каналов : Front: L C R, Side: L R, LFE
Частота : 48.0 KHz
Метод сжатия : Lossy
Размер потока : 151 MiB (5%)
Язык : Russian
Дата кодирования : UTC 2014-06-07 20:23:07
Дата пометки : UTC 2014-06-07 20:23:07










1. Открыть торрент
2. Снять галки с тех файлов торрента, которые мы не хотим закачивать. Оставляем только на нужных нам файлах (файле).
3. Нажать О.К.

В клиенте utorrent

Инструкция

1) Открыть торрент


2) Снять галки с тех файлов торрента, которые мы не хотим закачивать:

* либо вручную, снимая с каждого файла галку( скрин №1)
* либо, нажав кнопку "Снять метки (Select None)", сняв сразу со всех файлов(скрин №2)
№1

№2

Оставляем только на нужных нам файлах (файле).

3)Нажать О.К




Внимание!!! 09.08. 2014. РАЗДАЧА ОБНОВЛЕНА.ФИНАЛ СЕЗОНА.ОБНОВИТЕ ТОРЕНТ ФАЙЛ.ПРИЯТНОГО ПРОСМОТРА .

Релиз от: Nikolai.Baranov










Скачать Череп.и.кости.Crossbones.(Сезон.1.Серии.1-9.из.9).(Дэвид.Слэйд.Киаран.Доннелли.Дэниэл.Эттиэс.Терри.Макдонаф.Деран.Сарафян.Стив.Шилл).[2014.Драма.приключения.экранизация.WEBDLRip-AVC.1080р].[DD5.1].[MVO].[AlexFilm].torrent без регистрации
Золото ЗОЛОТАЯ РАЗДАЧА! СКАЧАННОЕ НЕ ЗАСЧИТЫВАЕТСЯ! Золото
Дата: Зарегистрирован   [ Тип: внутренний ] Как тут cкачать?
MAGNET ссылка
MAGNET ссылка


Скачать .torrent

54 KB

Статус: проверено DHT
Скачан: торрент - 309 раз, раздача полностью - 30 раз
Размер: 20,75 GB
Оценка:  - (Голосов: 0)
Поблагодарили: 3
Поделиться ссылкой на эту раздачу с друзьями:
В контактеFacebookОдноклассникиTwitterLivejournalМой МирLiveinternet
 

 
Показать сообщения:    


Вы не можете начинать темы
Вы не можете отвечать на сообщения
Вы не можете редактировать свои сообщения
Вы не можете удалять свои сообщения
Вы не можете голосовать в опросах
Вы не можете прикреплять файлы к сообщениям
Вы можете скачивать файлы