Loading...
Error

Скачать Острые козырьки / Peaky Blinders (Полный 1-ый сезон) [2013, драма, криминал, WEB-DLRip] [DVO] (Кубик в Кубе) торрент без регистрации

 
Статистика раздачи
Размер:  3,51 GB   |    Скачан:  422 раза
Сидов:  1  [  48 KB/s  ]  
 
Автор Сообщение

leon030982

[] 

Заточенные кепки / Резкие козырьки / Peaky Blinders

Год выпуска: 2013
Страна: Великобритания
Жанр: драма, криминал
Продолжительность: 55 мин
Перевод: Профессиональный (двухголосый, закадровый)[Кубик в Кубе]
Субтитры: нет
Режиссер: Отто Баферст / Otto Bathurst, Том Харпер / Tom Harper
В ролях:
Киллиан Мёрфи / Cillian Murphy, Пол Андерсон / Paul Anderson, Сэм Нил / Sam Neill, Джо Коул / Joe Cole, Иддо Голдберг / Iddo Goldberg

Описание:
Британский сериал о криминальном мире Бирмингема 20-х годов прошлого века, в котором многолюдная семья Шелби стала одной из самых жестоких и влиятельных гангстерских банд послевоенного времени. Фирменным знаком группировки, промышлявшей грабежами и азартными играми, стали зашитые в козырьки лезвия.
Качество: WEB-DLRip
Формат: AVI
Видео кодек: XviD
Аудио кодек: MP3
Видео: 624x336(352) (1.86:1), 25 fps, XviD build 65 ~999 kbps avg, 0.19 bit/pixel
Audio Rus: 48 kHz, MPEG Layer 3, 2 ch, ~224.00 kbps avg
Audio Eng: 48 kHz, MPEG Layer 3, 2 ch, ~224.00 kbps avg
Релиз:
Перевод:
El_Brujo
Рип: ЛП
При поддержке: Андрюха Фадин


General
Complete name : L:\Фтп 5\Сериалы\Резкие козырьки(The Peaky Blinders)\The Peaky Blinders Season 1 Kybik v Kybe\The.Peaky.Blinders.s01e01.rus.eng.CasStudio.TV.avi
Format : AVI
Format/Info : Audio Video Interleave
File size : 596 MiB
Duration : 56mn 59s
Overall bit rate : 1 463 Kbps
Writing application : VirtualDubMod 1.5.10.2 (build 2540/release)
Writing library : VirtualDubMod build 2540/release
Video
ID : 0
Format : MPEG-4 Visual
Format profile : Advanced Simple@L5
Format settings, BVOP : 1
Format settings, QPel : No
Format settings, GMC : No warppoints
Format settings, Matrix : Default (H.263)
Codec ID : XVID
Codec ID/Hint : XviD
Duration : 56mn 59s
Bit rate : 1 000 Kbps
Width : 624 pixels
Height : 336 pixels
Display aspect ratio : 1.85:1
Frame rate : 25.000 fps
Color space : YUV
Chroma subsampling : 4:2:0
Bit depth : 8 bits
Scan type : Progressive
Compression mode : Lossy
Bits/(Pixel*Frame) : 0.191
Stream size : 408 MiB (68%)
Writing library : XviD 65
Audio #1
ID : 1
Format : MPEG Audio
Format version : Version 1
Format profile : Layer 3
Codec ID : 55
Codec ID/Hint : MP3
Duration : 56mn 59s
Bit rate mode : Constant
Bit rate : 224 Kbps
Channel(s) : 2 channels
Sampling rate : 48.0 KHz
Compression mode : Lossy
Stream size : 91.3 MiB (15%)
Alignment : Aligned on interleaves
Interleave, duration : 40 ms (1.00 video frame)
Interleave, preload duration : 504 ms
Audio #2
ID : 2
Format : MPEG Audio
Format version : Version 1
Format profile : Layer 3
Mode : Joint stereo
Codec ID : 55
Codec ID/Hint : MP3
Duration : 56mn 59s
Bit rate mode : Constant
Bit rate : 224 Kbps
Channel(s) : 2 channels
Sampling rate : 48.0 KHz
Compression mode : Lossy
Stream size : 91.3 MiB (15%)
Alignment : Aligned on interleaves
Interleave, duration : 40 ms (1.00 video frame)
Interleave, preload duration : 504 ms
Writing library : LAME3.99r
Encoding settings : -m j -V 4 -q 2 -lowpass 19.4 -b 224



Скачать Острые.козырьки.Peaky.Blinders.(Полный.1-ый.сезон).[2013.драма.криминал.WEB-DLRip].[DVO].(Кубик.в.Кубе).torrent без регистрации
Золото ЗОЛОТАЯ РАЗДАЧА! СКАЧАННОЕ НЕ ЗАСЧИТЫВАЕТСЯ! Золото
Дата: Зарегистрирован   [ Тип: внутренний ] Как тут cкачать?
MAGNET ссылка
MAGNET ссылка


Скачать .torrent

19 KB

Статус: проверено DHT
Скачан: торрент - 422 раз, раздача полностью - 606 раз
Размер: 3,51 GB
Оценка:  - (Голосов: 0)
Поблагодарили: 4
Поделиться ссылкой на эту раздачу с друзьями:
В контактеFacebookОдноклассникиTwitterLivejournalМой МирLiveinternet
 

 
Показать сообщения:    


Вы не можете начинать темы
Вы не можете отвечать на сообщения
Вы не можете редактировать свои сообщения
Вы не можете удалять свои сообщения
Вы не можете голосовать в опросах
Вы не можете прикреплять файлы к сообщениям
Вы можете скачивать файлы