Loading...
Error

Скачать Тюдоры / The Tudors (Полный 3-ий сезон) (Киаран Доннелли, Джереми Подесва, Дирбла Уолш) [2009 г., исторический, HDRip] [MVO] (SET Russia) торрент без регистрации

 
Статистика раздачи
Размер:  5,77 GB   |    Скачан:  8787 раз
Сидов:  1  [  0,4 KB/s  ]  
 
Автор Сообщение

leon030982

[] 


Тюдоры / The Tudors


Год выпуска: 2009

Страна: Ирландия, США, Канада
Жанр: исторический
Продолжительность: ~ 00:53:00
Перевод: Профессиональный (многоголосый, закадровый)[SET Russia]
Субтитры: Отсутствуют
Режиссер: Киаран Доннелли, Джереми Подесва, Дирбла Уолш
В ролях:


Джонатан Риз Майерс, Сэм Нил, Генри Кэвелл, Натали Дормер, Джосс Стоун, Тамзин Мерчант, Джоэли Ричардсон, Джеймс Фрейн и др.
Описание:

Англия, 1536—1540 гг. В королевстве нарастает недовольство церковными реформами, что оборачивается крупным восстанием в северных графствах, известным как «Благодатное паломничество». Жестоко расправившись с мятежниками, Генрих празднует рождение наследника, принца Эдуарда, но его радость омрачена смертью Джейн Сеймур. Опасаясь вторжения испанцев и французов, Генрих ищет поддержки у других европейских государств и, по настоянию своего министра Томаса Кромвеля, женится на принцессе-протестантке Анне Клевской. Новая жена не пришлась королю по нраву, и вскоре следует развод, повлекший за собой и казнь Кромвеля.


Качество: HDRip
Формат: AVI
Видео кодек: XviD
Аудио кодек: AC3
Видео: 720x404 (1.78:1), 23.976 fps, XviD 1.3.0 RC1 ~1538 kbps avg, 0.22 bit/pixel
Аудио: 48 kHz, MPEG Layer 3, 2 ch, ~192.00 kbps avg / SET Russia /
Аудио: 48 kHz, MPEG Layer 3, 2 ch, ~192.00 kbps avg / Оригинал /

Релиз подготовлен: Taliy


General
Complete name : E:\The Tudors - Season 3 (SET Russia)\The.Tudors.s03e01.rus.eng.bdrip.filmgate.tv.avi
Format : AVI
Format/Info : Audio Video Interleave
File size : 719 MiB
Duration : 51mn 52s
Overall bit rate : 1 937 Kbps
Writing application : VirtualDubMod 1.5.10.2 (build 2540/release)
Writing library : VirtualDubMod build 2540/release
Video
ID : 0
Format : MPEG-4 Visual
Format profile : Advanced Simple@L5
Format settings, BVOP : Yes
Format settings, QPel : No
Format settings, GMC : No warppoints
Format settings, Matrix : Default (H.263)
Muxing mode : Packed bitstream
Codec ID : XVID
Codec ID/Hint : XviD
Duration : 51mn 52s
Bit rate : 1 539 Kbps
Width : 720 pixels
Height : 404 pixels
Display aspect ratio : 16:9
Frame rate : 23.976 fps
Resolution : 8 bits
Colorimetry : 4:2:0
Scan type : Interlaced
Scan order : Top Field First
Bits/(Pixel*Frame) : 0.221
Stream size : 571 MiB (79%)
Writing library : XviD 61
Audio #1
ID : 1
Format : MPEG Audio
Format version : Version 1
Format profile : Layer 3
Format_Settings_Mode : Joint stereo
Codec ID : 55
Codec ID/Hint : MP3
Duration : 51mn 52s
Bit rate mode : Constant
Bit rate : 192 Kbps
Channel(s) : 2 channels
Sampling rate : 48.0 KHz
Stream size : 71.2 MiB (10%)
Alignment : Aligned on interleaves
Interleave, duration : 42 ms (1.00 video frame)
Interleave, preload duration : 504 ms
Audio #2
ID : 2
Format : MPEG Audio
Format version : Version 1
Format profile : Layer 3
Format_Settings_Mode : Joint stereo
Codec ID : 55
Codec ID/Hint : MP3
Duration : 51mn 52s
Bit rate mode : Constant
Bit rate : 192 Kbps
Channel(s) : 2 channels
Sampling rate : 48.0 KHz
Stream size : 71.2 MiB (10%)
Alignment : Aligned on interleaves
Interleave, duration : 42 ms (1.00 video frame)
Interleave, preload duration : 504 ms





Скачать Тюдоры.The.Tudors.(Полный.3-ий.сезон).(Киаран.Доннелли.Джереми.Подесва.Дирбла.Уолш).[2009.г.исторический.HDRip].[MVO].(SET.Russia).torrent без регистрации
Золото ЗОЛОТАЯ РАЗДАЧА! СКАЧАННОЕ НЕ ЗАСЧИТЫВАЕТСЯ! Золото
Дата: Зарегистрирован   [ Тип: внутренний ] Как тут cкачать?
MAGNET ссылка
MAGNET ссылка


Скачать .torrent

30 KB

Статус: проверено DHT
Скачан: торрент - 8787 раз, раздача полностью - 111 раз
Размер: 5,77 GB
Оценка:  5 (Голосов: 2)
Поблагодарили: 5
Поделиться ссылкой на эту раздачу с друзьями:
В контактеFacebookОдноклассникиTwitterLivejournalМой МирLiveinternet
 

 
Показать сообщения:    


Вы не можете начинать темы
Вы не можете отвечать на сообщения
Вы не можете редактировать свои сообщения
Вы не можете удалять свои сообщения
Вы не можете голосовать в опросах
Вы не можете прикреплять файлы к сообщениям
Вы можете скачивать файлы