Loading...
Error

Скачать Странные дни / Strange Days (Кэтрин Бигелоу / Kathryn Bigelow) [1995, фантастика, триллер, драма, криминал, детектив, HDRip] [MVO] (Первый канал) + [AVO] (Визгунов) торрент без регистрации

 
Статистика раздачи
Размер:  1,47 GB   |    Скачан:  119 раз
Сидов:  1  [  0 KB/s  ]  
 
Автор Сообщение

leon030982

[] 

Странные дни / Strange Days


Год выпуска: 1995
Страна: США
Жанр: фантастика, триллер, драма, криминал, детектив
Продолжительность: 02:25:11
Перевод №1: Профессиональный (многоголосый, закадровый) [Первый канал]
Перевод №2: Авторский (одноголосый, закадровый) [Сергей Визгунов]
Cубтитры: нет

Режиссер: Кэтрин Бигелоу / Kathryn Bigelow
Сценарий: Джеймс Кэмерон, Джей Кокс

В ролях: Рэйф Файнс, Анджела Бассетт, Джульетт Льюис, Том Сайзмор, Майкл Уинкотт, Винсент Д’Онофрио, Гленн Пламмер, Брижит Бако, Ричард Эдсон, Уильям Фихтнер

Описание: 1999 год. Огромной популярностью пользуется новое изобретение, разработанное ФБР в целях слежки и попавшее на «черный» рынок. Надев на голову небольшое приспособление с датчиками, можно записать ощущения и «пережить» их через проигрыватель, причем с абсолютной достоверностью.
Можно принять душ в теле 16-летней девушки, можно… Кто-то записывает ощущения людей, погибающих насильственной смертью — находятся охотники и таких острых ощущений...



Качество: HDRip
Формат: AVI
Видео кодек: Xvid
Аудио кодек: AC3
Видео: Xvid, 720x304, 1047 Кбит/с, 23.976fps
Аудио #1: AC3, 48000Hz, stereo, 192kbps [Первый канал]
Аудио #2: AC3, 48000Hz, stereo, 192kbps [Визгунов] - VHSRip

Цитата:

Видеоряд взят из раздачи Scarabey.

Спасибо moisal и Vouka за предоставление и синхронизацию перевода Первого канала соответственно.

Спасибо 21Sepsis - за перевод Визгунова. За синхронизацию дорожки благодарим JUSTKANT.

В переводе Визгунова на интервале 00:57:48 - 01:01:28 - вставка Живова.
General
Complete name : D:\Загрузки\Strange_Days_[1_kanal,_Vizgunov].avi
Format : AVI
Format/Info : Audio Video Interleave
File size : 1.47 GiB
Duration : 2h 25mn
Overall bit rate : 1 446 Kbps
Writing application : VirtualDubMod 1.5.10.2 (build 2540/release)
Writing library : VirtualDubMod build 2540/release
Video
ID : 0
Format : MPEG-4 Visual
Format profile : Advanced Simple@L5
Format settings, BVOP : 1
Format settings, QPel : No
Format settings, GMC : No warppoints
Format settings, Matrix : Default (MPEG)
Codec ID : XVID
Codec ID/Hint : XviD
Duration : 2h 25mn
Bit rate : 1 048 Kbps
Width : 720 pixels
Height : 304 pixels
Display aspect ratio : 2.35:1
Frame rate : 23.976 fps
Color space : YUV
Chroma subsampling : 4:2:0
Bit depth : 8 bits
Scan type : Progressive
Compression mode : Lossy
Bits/(Pixel*Frame) : 0.200
Stream size : 1.06 GiB (72%)
Writing library : XviD 1.2.1 (UTC 2008-12-04)
Audio #1
ID : 1
Format : AC-3
Format/Info : Audio Coding 3
Mode extension : CM (complete main)
Format settings, Endianness : Big
Codec ID : 2000
Duration : 2h 25mn
Bit rate mode : Constant
Bit rate : 192 Kbps
Channel(s) : 2 channels
Channel positions : Front: L R
Sampling rate : 48.0 KHz
Bit depth : 16 bits
Compression mode : Lossy
Stream size : 199 MiB (13%)
Alignment : Split accross interleaves
Interleave, duration : 42 ms (1.00 video frame)
Interleave, preload duration : 500 ms
Audio #2
ID : 2
Format : AC-3
Format/Info : Audio Coding 3
Mode extension : CM (complete main)
Format settings, Endianness : Big
Codec ID : 2000
Duration : 2h 25mn
Bit rate mode : Constant
Bit rate : 192 Kbps
Channel(s) : 2 channels
Channel positions : Front: L R
Sampling rate : 48.0 KHz
Bit depth : 16 bits
Compression mode : Lossy
Stream size : 199 MiB (13%)
Alignment : Split accross interleaves
Interleave, duration : 42 ms (1.00 video frame)
Interleave, preload duration : 500 ms



Скачать Странные.дни.Strange.Days.(Кэтрин.Бигелоу.Kathryn.Bigelow).[1995.фантастика.триллер.драма.криминал.детектив.HDRip].[MVO].(Первый.канал).+.[AVO].(Визгунов).torrent без регистрации
Золото ЗОЛОТАЯ РАЗДАЧА! СКАЧАННОЕ НЕ ЗАСЧИТЫВАЕТСЯ! Золото
Дата: Зарегистрирован   [ Тип: внутренний ] Как тут cкачать?
MAGNET ссылка
MAGNET ссылка


Скачать .torrent

15 KB

Статус: проверено DHT
Скачан: торрент - 119 раз, раздача полностью - 69 раз
Размер: 1,47 GB
Оценка:  5 (Голосов: 1)
Поблагодарили: 4
Поделиться ссылкой на эту раздачу с друзьями:
В контактеFacebookОдноклассникиTwitterLivejournalМой МирLiveinternet
 

 
Показать сообщения:    


Вы не можете начинать темы
Вы не можете отвечать на сообщения
Вы не можете редактировать свои сообщения
Вы не можете удалять свои сообщения
Вы не можете голосовать в опросах
Вы не можете прикреплять файлы к сообщениям
Вы можете скачивать файлы