Loading...
Error

Скачать Река смерти / River of Death (Стив Карвер) [1989, боевик, приключения, SATRip-AVC] [MVO] торрент без регистрации

 
Статистика раздачи
Размер:  782 MB   |    Скачан:  158 раз
Сидов:  1  [  0 KB/s  ]  
 
Автор Сообщение

Marsianka

[] 

Информация о фильме
Название: Река смерти
Оригинальное название: River of Death
Год выхода: 1989
Жанр: боевик, приключения
Режиссер: Стив Карвер
В ролях: Майкл Дудикофф, Синтия Эрланд, Эрика Роджерс, Дональд Плезенс, Херберт Лом, Л. Кью Джонс, Йен Юли, Джеймс Уайт, Сара Маур Торп, Херберт Лом, Роберт Вон, Ален Вулф, Линдси Рирдон, Исаак Мэвимбелла, Джоки Ригни, Дэйв Блом, Майлз Шотер, Арт Келли, Макс Мостерт

О фильме:
Джон Хемилтон и его спутники пробираются через амазонские джунгли в поисках таинственного "Затерянного города". Именно там, в диких джунглях, герои наталкиваются на колонию, основанную нацистскими преступниками. Бывшие доктора-садисты перенесли свои чудовищные опыты из концлагерей на маленькое индейское племя, которому теперь грозит вымирание...


Страна: США
Студия: Breton Film Productions, Cannon International, Pathe Communications.
Продолжительность: 0136:50
Перевод: Профессиональный (многоголосый закадровый)

Файл
Формат: MKV
Кодек: H.264
Качество: SATRip-AVC
Видео: 704 × 528, 25 кадров/сек, 1000 Кбит/сек
Звук: MP3, 48 КГц, 2 канала, 128 Кбит/сек
Субтитры: отсутствуют
Формат : Matroska
Версия формата : Version 2
Размер файла : 782 Мбайт
Продолжительность : 1 ч. 36 м.
Общий поток : 1129 Кбит/сек
Дата кодирования : UTC 2012-04-08 18:01:39
Программа кодирования : mkvmerge v5.3.0 ('I could have danced') built on Feb 9 2012 10:38:07
Библиотека кодирования : libebml v1.2.3 + libmatroska v1.3.0

Видео
Идентификатор : 1
Формат : AVC
Формат/Информация : Advanced Video Codec
Профиль формата : High@L3.0
Параметр CABAC формата : Да
Параметр ReFrames формата : 4 кадра
Режим смешивания : Header stripping
Идентификатор кодека : V_MPEG4/ISO/AVC
Продолжительность : 1 ч. 36 м.
Битрейт : 1000 Кбит/сек
Ширина : 704 пикселя
Высота : 528 пикселей
Соотношение сторон : 4:3
Частота кадров : 25,000 кадров/сек
Цветовое пространство : YUV
Субдискретизация насыщенности : 4:2:0
Битовая глубина : 8 бит
Тип развёртки : Прогрессивная
Бит/(Пиксели*Кадры) : 0.108
Размер потока : 678 Мбайт (87%)
Библиотека кодирования : x264 core 120 r2164 da19765
Настройки программы : cabac=1 / ref=3 / deblock=1:0:0 / analyse=0x3:0x111 / me=hex / subme=7 / psy=1 / psy_rd=1.00:0.00 / mixed_ref=1 / me_range=16 / chroma_me=1 / trellis=1 / 8x8dct=1 / cqm=0 / deadzone=21,11 / fast_pskip=1 / chroma_qp_offset=-2 / threads=6 / sliced_threads=0 / nr=0 / decimate=1 / interlaced=0 / bluray_compat=0 / constrained_intra=0 / bframes=3 / b_pyramid=2 / b_adapt=1 / b_bias=0 / direct=1 / weightb=1 / open_gop=0 / weightp=2 / keyint=250 / keyint_min=25 / scenecut=40 / intra_refresh=0 / rc_lookahead=40 / rc=2pass / mbtree=1 / bitrate=1000 / ratetol=1.0 / qcomp=0.60 / qpmin=0 / qpmax=69 / qpstep=4 / cplxblur=20.0 / qblur=0.5 / ip_ratio=1.40 / aq=1:1.00
Язык : English
Default : Да
Forced : Нет

Аудио
Идентификатор : 2
Формат : MPEG Audio
Версия формата : Version 1
Профиль формата : Layer 3
Режим : Joint stereo
Расширение режима : MS Stereo
Режим смешивания : Header stripping
Идентификатор кодека : A_MPEG/L3
Идентификатор кодека/Подсказка : MP3
Продолжительность : 1 ч. 36 м.
Вид битрейта : Постоянный
Битрейт : 128 Кбит/сек
Каналы : 2 канала
Частота : 48,0 КГц
Метод сжатия : С потерями
Размер потока : 88,7 Мбайт (11%)
Default : Да
Forced : Нет



Скачать Река.смерти.River.of.Death.(Стив.Карвер).[1989.боевик.приключения.SATRip-AVC].[MVO].torrent без регистрации
Золото ЗОЛОТАЯ РАЗДАЧА! СКАЧАННОЕ НЕ ЗАСЧИТЫВАЕТСЯ! Золото
Дата: Зарегистрирован   [ Тип: внутренний ] Как тут cкачать?
MAGNET ссылка
MAGNET ссылка


Скачать .torrent

16 KB

Статус: проверено DHT
Скачан: торрент - 158 раз, раздача полностью - 7 раз
Размер: 782 MB
Оценка:  - (Голосов: 0)
Поблагодарили: 3
Поделиться ссылкой на эту раздачу с друзьями:
В контактеFacebookОдноклассникиTwitterLivejournalМой МирLiveinternet
 

 
Показать сообщения:    


Вы не можете начинать темы
Вы не можете отвечать на сообщения
Вы не можете редактировать свои сообщения
Вы не можете удалять свои сообщения
Вы не можете голосовать в опросах
Вы не можете прикреплять файлы к сообщениям
Вы можете скачивать файлы