Loading...
Error

Скачать Затерянный Мир / The Lost World (Боб Кин) [1998, фантастика, приключения, DVDRip-AVC] [MVO]+[Оригинал]+[Sub] торрент без регистрации

 
Статистика раздачи
Размер:  1,45 GB   |    Скачан:  169 раз
Сидов:  1  [  0 KB/s  ]  
 
Автор Сообщение

Marsianka

[] 

Страна: Канада, США
Производство: Maple Pictures

Жанр: фантастика, приключения
Год выпуска: 1998
Продолжительность: 01:33:44

Перевод: Профессиональный (многоголосый, закадровый)
Оригинальная аудиодорожка: английский
Cубтитры: русский

Режиссер: Боб Кин / Bob Keen

В ролях:
Патрик Бергин, Джэйн Хейтмейер, Джулиан Кэйси, Дэвид Нермэн, Майкл Синельников, Джек Лангедийк, Расселл Юэнь, Джеймс Брэдфорд...

Описание:
1934 год. Лондон взбудоражен новейшей сенсацией — знаменитый ученый и искатель приключений Джордж Челленджер отправляется со своим заклятым соперником и конкурентом профессором Саммерли в Монголию на поиски неведомого мира, населенного доисторическими монстрами, чтобы однажды показать изумленному миру живого птеродактиля. В компании с очаровательной Амандой Уайт, отважным охотником Джоном Рокстоном и юным репортером Артуром Мелоуном они готовы совершить героический полет на воздушном шаре, чтобы подняться на недосягаемое горное плато, скрытое за пеленой облаков. Наконец, преодолев снега, поборов страх и сразившись с диким племенем неандертальцев, они стоят в шаге от заветной цели. Но бесстрашные искатели приключений еще не знают, что страна тайн и открытий станет для них коварной ловушкой, из которой не всем удастся выбраться живыми…

Исходник: DVD5 R5
Тип релиза: DVDRip-AVC
Контейнер: MKV

Видео: 696->762x572 (4:3), 25,000 fps, H264 ~ 1451 kbps avg, 0.146 bit/pixel
Аудио: 48 kHz, Dolby Digital AC3 5.1, 384 kbps MVO
Аудио: 48 kHz, Dolby Digital AC3 5.1, 384 kbps Английский
Оригинальная навигация по главам: есть
Субтитры: SoftSub (srt)
Раздача от:

Общее
Полное имя : Zateryannyy.mir.1998.DVDRip-AVC_[New-team]_by_AVP_Studio.mkv
Формат : Matroska
Версия формата : Version 4 / Version 2
Размер файла : 1,45 Гбайт
Продолжительность : 1 ч. 33 м.
Общий поток : 2221 Кбит/сек
Название фильма : Zateryannyy.mir.1998.DVDRip-AVC_[New-team]_by_AVP_Studio
Дата кодирования : UTC 2014-07-03 21:47:11
Программа кодирования : mkvmerge v6.9.1 ('Blue Panther') 64bit built on Apr 18 2014 18:23:38
Библиотека кодирования : libebml v1.3.0 + libmatroska v1.4.1

Видео
Идентификатор : 1
Формат : AVC
Формат/Информация : Advanced Video Codec
Профиль формата : High@L4.1
Параметр CABAC формата : Да
Параметр ReFrames формата : 8 кадров
Идентификатор кодека : V_MPEG4/ISO/AVC
Продолжительность : 1 ч. 33 м.
Битрейт : 1451 Кбит/сек
Ширина : 696 пикселей
Высота : 572 пикселя
Соотношение сторон : 4:3
Режим частоты кадров : Постоянный
Частота кадров : 25,000 кадров/сек
Цветовое пространство : YUV
Субдискретизация насыщенности : 4:2:0
Битовая глубина : 8 бит
Тип развёртки : Прогрессивная
Бит/(Пиксели*Кадры) : 0.146
Размер потока : 945 Мбайт (63%)
Заголовок : Источник DVD
Библиотека кодирования : x264 core 138 r2356 a1d3d17
Настройки программы : cabac=1 / ref=8 / deblock=1:-2:-1 / analyse=0x3:0x113 / me=umh / subme=10 / psy=1 / psy_rd=1.00:0.05 / mixed_ref=1 / me_range=32 / chroma_me=1 / trellis=2 / 8x8dct=1 / cqm=0 / deadzone=21,11 / fast_pskip=0 / chroma_qp_offset=-3 / threads=6 / lookahead_threads=1 / sliced_threads=0 / nr=0 / decimate=0 / interlaced=0 / bluray_compat=0 / constrained_intra=0 / bframes=8 / b_pyramid=2 / b_adapt=2 / b_bias=0 / direct=3 / weightb=1 / open_gop=0 / weightp=2 / keyint=250 / keyint_min=25 / scenecut=40 / intra_refresh=0 / rc=2pass / mbtree=0 / bitrate=1451 / ratetol=1.0 / qcomp=0.60 / qpmin=0 / qpmax=69 / qpstep=4 / cplxblur=20.0 / qblur=0.5 / ip_ratio=1.40 / pb_ratio=1.30 / aq=1:1.00
Язык : English
Default : Да
Forced : Нет

Аудио #1
Идентификатор : 2
Формат : AC-3
Формат/Информация : Audio Coding 3
Расширение режима : CM (complete main)
Параметр Endianness формата : Big
Идентификатор кодека : A_AC3
Продолжительность : 1 ч. 33 м.
Вид битрейта : Постоянный
Битрейт : 384 Кбит/сек
Каналы : 6 каналов
Расположение каналов : Front: L C R, Side: L R, LFE
Частота : 48,0 КГц
Битовая глубина : 16 бит
Метод сжатия : С потерями
Размер потока : 257 Мбайт (17%)
Заголовок : Источник DVD Dolby Digital 5,1 384 kbps MVO
Язык : Russian
Default : Да
Forced : Нет

Аудио #2
Идентификатор : 3
Формат : AC-3
Формат/Информация : Audio Coding 3
Расширение режима : CM (complete main)
Параметр Endianness формата : Big
Идентификатор кодека : A_AC3
Продолжительность : 1 ч. 33 м.
Вид битрейта : Постоянный
Битрейт : 384 Кбит/сек
Каналы : 6 каналов
Расположение каналов : Front: L C R, Side: L R, LFE
Частота : 48,0 КГц
Битовая глубина : 16 бит
Метод сжатия : С потерями
Размер потока : 257 Мбайт (17%)
Заголовок : Источник DVD Dolby Digital 5,1 384 kbp
Язык : English
Default : Нет
Forced : Нет

Текст
Идентификатор : 4
Формат : UTF-8
Идентификатор кодека : S_TEXT/UTF8
Идентификатор кодека/Информация : UTF-8 Plain Text
Заголовок : Источник DVD SoftSub (srt)
Язык : Russian
Default : Нет
Forced : Нет

Меню
00:00:00.000 : ru:Эпизод 01
00:02:08.440 : ru:Эпизод 02
00:10:38.560 : ru:Эпизод 03
00:19:27.400 : ru:Эпизод 04
00:23:37.000 : ru:Эпизод 05
00:29:58.680 : ru:Эпизод 06
00:31:20.840 : ru:Эпизод 07
00:38:58.960 : ru:Эпизод 08
00:41:58.360 : ru:Эпизод 09
00:48:14.320 : ru:Эпизод 10
00:52:33.800 : ru:Эпизод 11
00:59:57.360 : ru:Эпизод 12
01:04:19.960 : ru:Эпизод 13
01:12:00.680 : ru:Эпизод 14
01:18:18.720 : ru:Эпизод 15
01:23:48.401 : ru:Эпизод 16
01:28:34.920 : ru:Эпизод 17
01:29:40.440 : ru:Эпизод 18



Скачать Затерянный.Мир.The.Lost.World.(Боб.Кин).[1998.фантастика.приключения.DVDRip-AVC].[MVO]+[Оригинал]+[Sub].torrent без регистрации
Золото ЗОЛОТАЯ РАЗДАЧА! СКАЧАННОЕ НЕ ЗАСЧИТЫВАЕТСЯ! Золото
Дата: Зарегистрирован   [ Тип: внутренний ] Как тут cкачать?
MAGNET ссылка
MAGNET ссылка


Скачать .torrent

15 KB

Статус: проверено DHT
Скачан: торрент - 169 раз, раздача полностью - 9 раз
Размер: 1,45 GB
Оценка:  - (Голосов: 0)
Поблагодарили: 2
Поделиться ссылкой на эту раздачу с друзьями:
В контактеFacebookОдноклассникиTwitterLivejournalМой МирLiveinternet
 

 
Показать сообщения:    


Вы не можете начинать темы
Вы не можете отвечать на сообщения
Вы не можете редактировать свои сообщения
Вы не можете удалять свои сообщения
Вы не можете голосовать в опросах
Вы не можете прикреплять файлы к сообщениям
Вы можете скачивать файлы