Loading...
Error

Скачать Похитители / Les Kidnappeurs (Грэм Гюи) [1998, боевик, комедия, криминал, DVDRip] [MVO]+[Оригинал] торрент без регистрации

 
Статистика раздачи
Размер:  1,46 GB   |    Скачан:  101 раз
Сидов:  2  [  0 KB/s  ]   Личеров:  1  [  0 KB/s  ]  
 
Автор Сообщение

Marsianka

[] 

Страна: Франция
Производство: Canal+ [fr], Gimages, Les Productions du Champ Poirier, M6 Films, Sofinergie Films, Studio Images 5

Жанр: боевик, комедия, криминал
Год выпуска: 1998
Продолжительность: 01:36:15

Перевод: Профессиональный (многоголосый, закадровый)
Оригинальная аудиодорожка: французский
Cубтитры: нет

Режиссер: Грэм Гюи / Graham Guit

В ролях:
Ромен Дюри, Мельвиль Пупо, Элоди Буше, Айзек Шарри, Эли Каку, Элен Фийере, Патрик Лизана, Саша Бурдо, Ришар Шевалье, Клиффорд Энди...

Описание:
Профессиональный взломщик сейфов Арман, вышедший из тюрьмы и заставший любимую девушку в постели с другим мужчиной… Беззаботная Клэр, перед которой не устоит ни одна система безопасности… Охваченный депрессией Зеро, помешанный на автомобилях… Мелкий жулик Улисс, зацикленный на оружии… Они не должны были доверять друг другу и вместе идти на дело. И все же, сколотив «крутую банду», они замышляют совершить «самое плевое ограбление века». То, что им удалось похитить, превзошло все возможные ожидания. Одна беда — их добыча оказалась нужна слишком многим. Легкое дельце оборачивается большими неприятностями…

Исходник: DVD5 R5
Тип релиза: DVDRip
Контейнер: AVI

Видео: 704x304 (4:3), 25,000 fps, XviD ~ 1772 kbps avg, 0.331 bit/pixel
Аудио: 48 kHz, Dolby Digital AC3 5.1, 384 kbps MVO
Аудио: 48 kHz, Dolby Digital AC3 5.1, 384 kbps Французский
Раздача от:

Общее
Полное имя : Pohititeli.1998.DVDRip_[New-team]_by_AVP_Studio.avi
Формат : AVI
Формат/Информация : Audio Video Interleave
Размер файла : 1,46 Гбайт
Продолжительность : 1 ч. 36 м.
Общий поток : 2170 Кбит/сек
Программа кодирования : VirtualDubModRus 1.5.10.2 (build 2542/release)
Библиотека кодирования : VirtualDubMod build 2542/release

Видео
Идентификатор : 0
Формат : MPEG-4 Visual
Профиль формата : Advanced Simple@L5
Параметр BVOP формата : 1
Параметр QPel формата : Нет
Параметр GMC формата : Без точки перехода
Параметр матрицы формата : Выборочная
Идентификатор кодека : XVID
Идентификатор кодека/Подсказка : XviD
Продолжительность : 1 ч. 36 м.
Битрейт : 1772 Кбит/сек
Ширина : 704 пикселя
Высота : 304 пикселя
Соотношение сторон : 2,35:1
Частота кадров : 25,000 кадров/сек
Цветовое пространство : YUV
Субдискретизация насыщенности : 4:2:0
Битовая глубина : 8 бит
Тип развёртки : Прогрессивная
Метод сжатия : С потерями
Бит/(Пиксели*Кадры) : 0.331
Размер потока : 1,19 Гбайт (82%)
Библиотека кодирования : XviD 73

Аудио #1
Идентификатор : 1
Формат : AC-3
Формат/Информация : Audio Coding 3
Расширение режима : CM (complete main)
Параметр Endianness формата : Big
Идентификатор кодека : 2000
Продолжительность : 1 ч. 36 м.
Вид битрейта : Постоянный
Битрейт : 192 Кбит/сек
Каналы : 2 канала
Расположение каналов : Front: L R
Частота : 48,0 КГц
Битовая глубина : 16 бит
Метод сжатия : С потерями
Размер потока : 132 Мбайт (9%)
Выравнивание : Разделение по промежуткам
Продолжительность промежутка : 40 мс. (1,00 видеокадр)
Время предзагрузки промежутка : 500 мс.

Аудио #2
Идентификатор : 2
Формат : AC-3
Формат/Информация : Audio Coding 3
Расширение режима : CM (complete main)
Параметр Endianness формата : Big
Идентификатор кодека : 2000
Продолжительность : 1 ч. 36 м.
Вид битрейта : Постоянный
Битрейт : 192 Кбит/сек
Каналы : 2 канала
Расположение каналов : Front: L R
Частота : 48,0 КГц
Битовая глубина : 16 бит
Метод сжатия : С потерями
Размер потока : 132 Мбайт (9%)
Выравнивание : Разделение по промежуткам
Продолжительность промежутка : 40 мс. (1,00 видеокадр)
Время предзагрузки промежутка : 500 мс



Скачать Похитители.Les.Kidnappeurs.(Грэм.Гюи).[1998.боевик.комедия.криминал.DVDRip].[MVO]+[Оригинал].torrent без регистрации
Золото ЗОЛОТАЯ РАЗДАЧА! СКАЧАННОЕ НЕ ЗАСЧИТЫВАЕТСЯ! Золото
Дата: Зарегистрирован   [ Тип: внешний ] Как тут cкачать?
MAGNET ссылка
MAGNET ссылка


Скачать .torrent

15 KB

Статус: проверено DHT
Скачан: торрент - 101 раз, раздача полностью - 2 раз
Размер: 1,46 GB
Оценка:  - (Голосов: 0)
Поблагодарили: 1
Поделиться ссылкой на эту раздачу с друзьями:
В контактеFacebookОдноклассникиTwitterLivejournalМой МирLiveinternet
 

 
Показать сообщения:    


Вы не можете начинать темы
Вы не можете отвечать на сообщения
Вы не можете редактировать свои сообщения
Вы не можете удалять свои сообщения
Вы не можете голосовать в опросах
Вы не можете прикреплять файлы к сообщениям
Вы можете скачивать файлы