Loading...
Error

Скачать 20000 лье под водой / 20,000 Leagues Under the Sea (Род Харди / Rod Hardy) [1997, фантастика, мелодрама, приключения, DVDRip-AVC] [MVO] (ТВ6) + [DVO] + [AVO] (Ю.Сербин) торрент без регистрации

 
Статистика раздачи
Размер:  2,9 GB   |    Скачан:  165 раз
Сидов:  1  [  0 KB/s  ]  
 
Автор Сообщение

leon030982

[] 

20000 лье под водой / 20,000 Leagues Under the Sea



Год выпуска: 1997
Страна: США, Австралия
Жанр: фантастика, мелодрама, приключения
Продолжительность: 01:25:33 + 01:27:24
Перевод №1: Профессиональный (многоголосый, закадровый)(ТВ6)
Перевод №2: Профессиональный (двухголосый, закадровый)(РЕН ТВ)
Перевод №3: Профессиональный (одноголосый)(Юрий Сербин)
Оригинальный аудиопоток:английский

Режиссер: Род Харди / Rod Hardy

В ролях: Майкл Кейн (Captain Nemo), Патрик Демпси (Pierre Arronax), Миа Сара (Mara), Брайан Браун (Ned Land), Адевале Акинойе-Агбаже (Cabe Attucks), Джон Бах (Thierry Arronax), Николас Хэммонд (Saxon), Питер МакКоли (Admiral McCutcheon), Керри Армстронг (Lydia Rawlings), Сесиль Чун (Imei), Кен Сенга (Shimoda), Джерри Дэй (Nitongu)

Описание: В основу фильма положен мировой бестселлер Жюля Верна «20 000 лье под водой», который рассказывает невероятную и волнующую историю приключений в подводном мире... 1860 год. Молодой француз Пьер Арронакс одержим идеей - доказать существование морского чудовища, которое, согласно его теории, является причиной пропажи морских судов. Во время поисковой экспедиции его судно терпит крушение. Пьер приходит в себя на борту удивительной подводной лодки - «Наутилуса». Хозяин «Наутилуса» - деспотичный и властный капитан Немо, проявляя гостеприимство, совершает специально для Пьера и его друзей удивительную экскурсию, показывая им все волшебные сокровища океана. Но друг Пьера Нед Ленд, не желая больше оставаться пленником, задумывает захватить подводную лодку в свои руки. Ко всему прочему, между Пьером и дочерью капитана Немо Марой завязывается роман, что еще больше усложняет ситуацию. Во время подводной экспедиции в сторону Антарктики на лодке происходит серьезная авария, способная привести к гибели всего экипажа под толщей льда. Пассажирам «Наутилуса» приходится отбросить в сторону свои личные амбиции и счеты и объединиться, чтобы выбраться из ледяного ада.



Качество: DVDRip (2xDVD9(Custom) | rjhlb777)
Формат: MKV
Видео кодек: h.264
Аудио кодек: AC3
Первая серия

Видео: AVC, 720x540 (4:3), 1656 kbps, 25 fps, 0,170 bpp
Аудио 1: русский / AC3 / 2.0 / 48 kHz / 192 kbps
Аудио 2: русский / AC3 / 2.0 / 48 kHz / 192 kbps
Аудио 3: русский / AC3 / 2.0 / 48 kHz / 192 kbps
Аудио 4: английский / AC3 / 2.0 / 48 kHz / 192 kbps
Навигация по главам: есть


Format : Matroska
Format version : Version 2
File size : 1.45 GiB
Duration : 1h 25mn
Overall bit rate : 2 427 Kbps
Movie name : = 20000 лье под водой / 20,000 Leagues Under the Sea DVDRip by SC Kosmos =
Encoded date : UTC 2014-07-02 16:56:20
Writing application : mkvmerge v3.3.0 ('Language') gebaut am Mar 24 2010 14:59:24
Writing library : libebml v0.8.0 + libmatroska v0.9.0

Video
ID : 1
Format : AVC
Format/Info : Advanced Video Codec
Format profile : High@L4.1
Format settings, CABAC : Yes
Format settings, ReFrames : 12 frames
Codec ID : V_MPEG4/ISO/AVC
Duration : 1h 25mn
Bit rate : 1 656 Kbps
Width : 720 pixels
Height : 540 pixels
Display aspect ratio : 4:3
Frame rate : 25.000 fps
Color space : YUV
Chroma subsampling : 4:2:0
Bit depth : 8 bits
Scan type : Progressive
Bits/(Pixel*Frame) : 0.170
Stream size : 985 MiB (66%)
Title : 20000 лье под водой / 20,000 Leagues Under the Sea DVDRip by SC Kosmos
Writing library : x264 core 142 r2431 ac76440
Encoding settings : cabac=1 / ref=12 / deblock=1:-2:-2 / analyse=0x3:0x113 / me=umh / subme=11 / psy=1 / psy_rd=1.00:0.10 / mixed_ref=1 / me_range=32 / chroma_me=1 / trellis=2 / 8x8dct=1 / cqm=0 / deadzone=21,11 / fast_pskip=0 / chroma_qp_offset=-3 / threads=12 / lookahead_threads=1 / sliced_threads=0 / nr=0 / decimate=1 / interlaced=0 / bluray_compat=0 / constrained_intra=0 / bframes=12 / b_pyramid=2 / b_adapt=1 / b_bias=0 / direct=3 / weightb=1 / open_gop=0 / weightp=2 / keyint=250 / keyint_min=25 / scenecut=40 / intra_refresh=0 / rc=2pass / mbtree=0 / bitrate=1656 / ratetol=1.0 / qcomp=0.60 / qpmin=0 / qpmax=69 / qpstep=4 / cplxblur=20.0 / qblur=0.5 / ip_ratio=1.40 / pb_ratio=1.30 / aq=1:1.00
Language : English
Default : No
Forced : No

Audio #1
ID : 2
Format : AC-3
Format/Info : Audio Coding 3
Mode extension : CM (complete main)
Codec ID : A_AC3
Duration : 1h 25mn
Bit rate mode : Constant
Bit rate : 192 Kbps
Channel(s) : 2 channels
Channel positions : Front: L R
Sampling rate : 48.0 KHz
Bit depth : 16 bits
Compression mode : Lossy
Stream size : 117 MiB (8%)
Title : MVO (ТВ6)
Language : Russian
Default : Yes
Forced : Yes

Audio #2
ID : 3
Format : AC-3
Format/Info : Audio Coding 3
Mode extension : CM (complete main)
Codec ID : A_AC3
Duration : 1h 25mn
Bit rate mode : Constant
Bit rate : 192 Kbps
Channel(s) : 2 channels
Channel positions : Front: L R
Sampling rate : 48.0 KHz
Bit depth : 16 bits
Compression mode : Lossy
Stream size : 117 MiB (8%)
Title : DVO (РЕН ТВ)
Language : Russian
Default : No
Forced : No

Audio #3
ID : 4
Format : AC-3
Format/Info : Audio Coding 3
Mode extension : CM (complete main)
Codec ID : A_AC3
Duration : 1h 25mn
Bit rate mode : Constant
Bit rate : 192 Kbps
Channel(s) : 2 channels
Channel positions : Front: L R
Sampling rate : 48.0 KHz
Bit depth : 16 bits
Compression mode : Lossy
Stream size : 117 MiB (8%)
Title : AVO (Юрий Сербин)
Language : Russian
Default : No
Forced : No

Audio #4
ID : 5
Format : AC-3
Format/Info : Audio Coding 3
Mode extension : CM (complete main)
Codec ID : A_AC3
Duration : 1h 25mn
Bit rate mode : Constant
Bit rate : 192 Kbps
Channel(s) : 2 channels
Channel positions : Front: L R
Sampling rate : 48.0 KHz
Bit depth : 16 bits
Compression mode : Lossy
Stream size : 117 MiB (8%)
Language : English
Default : No
Forced : No

Menu
00:00:00.000 : en:Chapter 01
00:11:15.480 : en:Chapter 02
00:22:02.960 : en:Chapter 03
00:26:57.600 : en:Chapter 04
00:34:32.560 : en:Chapter 05
00:39:44.560 : en:Chapter 06
00:50:00.200 : en:Chapter 07
01:00:31.160 : en:Chapter 08
01:07:20.440 : en:Chapter 09
01:14:59.360 : en:Chapter 10
01:25:32.600 : en:Chapter 11

Вторая серия

Видео: AVC, 720x540 (4:3), 1605 kbps, 25 fps, 0,165 bpp
Аудио 1: русский / AC3 / 2.0 / 48 kHz / 192 kbps
Аудио 2: русский / AC3 / 2.0 / 48 kHz / 192 kbps
Аудио 3: русский / AC3 / 2.0 / 48 kHz / 192 kbps
Аудио 4: английский / AC3 / 2.0 / 48 kHz / 192 kbps
Навигация по главам: есть


Format : Matroska
Format version : Version 2
File size : 1.45 GiB
Duration : 1h 27mn
Overall bit rate : 2 376 Kbps
Movie name : = 20000 лье под водой / 20,000 Leagues Under the Sea DVDRip by SC Kosmos =
Encoded date : UTC 2014-07-05 14:33:01
Writing application : mkvmerge v3.3.0 ('Language') gebaut am Mar 24 2010 14:59:24
Writing library : libebml v0.8.0 + libmatroska v0.9.0

Video
ID : 1
Format : AVC
Format/Info : Advanced Video Codec
Format profile : High@L4.1
Format settings, CABAC : Yes
Format settings, ReFrames : 12 frames
Codec ID : V_MPEG4/ISO/AVC
Duration : 1h 27mn
Bit rate : 1 605 Kbps
Width : 720 pixels
Height : 540 pixels
Display aspect ratio : 4:3
Frame rate : 25.000 fps
Color space : YUV
Chroma subsampling : 4:2:0
Bit depth : 8 bits
Scan type : Progressive
Bits/(Pixel*Frame) : 0.165
Stream size : 975 MiB (66%)
Title : 20000 лье под водой / 20,000 Leagues Under the Sea DVDRip by SC Kosmos
Writing library : x264 core 142 r2431 ac76440
Encoding settings : cabac=1 / ref=12 / deblock=1:-2:-2 / analyse=0x3:0x113 / me=umh / subme=11 / psy=1 / psy_rd=1.00:0.10 / mixed_ref=1 / me_range=32 / chroma_me=1 / trellis=2 / 8x8dct=1 / cqm=0 / deadzone=21,11 / fast_pskip=0 / chroma_qp_offset=-3 / threads=12 / lookahead_threads=1 / sliced_threads=0 / nr=0 / decimate=1 / interlaced=0 / bluray_compat=0 / constrained_intra=0 / bframes=12 / b_pyramid=2 / b_adapt=1 / b_bias=0 / direct=3 / weightb=1 / open_gop=0 / weightp=2 / keyint=250 / keyint_min=25 / scenecut=40 / intra_refresh=0 / rc=2pass / mbtree=0 / bitrate=1605 / ratetol=1.0 / qcomp=0.60 / qpmin=0 / qpmax=69 / qpstep=4 / cplxblur=20.0 / qblur=0.5 / ip_ratio=1.40 / pb_ratio=1.30 / aq=1:1.00
Language : English
Default : No
Forced : No

Audio #1
ID : 2
Format : AC-3
Format/Info : Audio Coding 3
Mode extension : CM (complete main)
Codec ID : A_AC3
Duration : 1h 27mn
Bit rate mode : Constant
Bit rate : 192 Kbps
Channel(s) : 2 channels
Channel positions : Front: L R
Sampling rate : 48.0 KHz
Bit depth : 16 bits
Compression mode : Lossy
Stream size : 120 MiB (8%)
Title : MVO (ТВ6)
Language : Russian
Default : Yes
Forced : Yes

Audio #2
ID : 3
Format : AC-3
Format/Info : Audio Coding 3
Mode extension : CM (complete main)
Codec ID : A_AC3
Duration : 1h 27mn
Bit rate mode : Constant
Bit rate : 192 Kbps
Channel(s) : 2 channels
Channel positions : Front: L R
Sampling rate : 48.0 KHz
Bit depth : 16 bits
Compression mode : Lossy
Stream size : 120 MiB (8%)
Title : DVO (РЕН ТВ)
Language : Russian
Default : No
Forced : No

Audio #3
ID : 4
Format : AC-3
Format/Info : Audio Coding 3
Mode extension : CM (complete main)
Codec ID : A_AC3
Duration : 1h 27mn
Bit rate mode : Constant
Bit rate : 192 Kbps
Channel(s) : 2 channels
Channel positions : Front: L R
Sampling rate : 48.0 KHz
Bit depth : 16 bits
Compression mode : Lossy
Stream size : 120 MiB (8%)
Title : AVO (Юрий Сербин)
Language : Russian
Default : No
Forced : No

Audio #4
ID : 5
Format : AC-3
Format/Info : Audio Coding 3
Mode extension : CM (complete main)
Codec ID : A_AC3
Duration : 1h 27mn
Bit rate mode : Constant
Bit rate : 192 Kbps
Channel(s) : 2 channels
Channel positions : Front: L R
Sampling rate : 48.0 KHz
Bit depth : 16 bits
Compression mode : Lossy
Stream size : 120 MiB (8%)
Language : English
Default : No
Forced : No

Menu
00:00:00.000 : en:Chapter 01
00:09:14.280 : en:Chapter 02
00:16:47.160 : en:Chapter 03
00:29:51.480 : en:Chapter 04
00:37:06.960 : en:Chapter 05
00:46:07.240 : en:Chapter 06
00:52:33.360 : en:Chapter 07
01:01:41.840 : en:Chapter 08
01:07:53.920 : en:Chapter 09
01:16:28.560 : en:Chapter 10
01:27:23.640 : en:Chapter 11



Скачать 20000.лье.под.водой.20.000.Leagues.Under.the.Sea.(Род.Харди.Rod.Hardy).[1997.фантастика.мелодрама.приключения.DVDRip-AVC].[MVO].(ТВ6).+.[DVO].+.[AVO].(Ю.Сербин).torrent без регистрации
Золото ЗОЛОТАЯ РАЗДАЧА! СКАЧАННОЕ НЕ ЗАСЧИТЫВАЕТСЯ! Золото
Дата: Зарегистрирован   [ Тип: внутренний ] Как тут cкачать?
MAGNET ссылка
MAGNET ссылка


Скачать .torrent

15 KB

Статус: проверено DHT
Скачан: торрент - 165 раз, раздача полностью - 59 раз
Размер: 2,9 GB
Оценка:  5 (Голосов: 1)
Поблагодарили: 2
Поделиться ссылкой на эту раздачу с друзьями:
В контактеFacebookОдноклассникиTwitterLivejournalМой МирLiveinternet
 

 
Показать сообщения:    


Вы не можете начинать темы
Вы не можете отвечать на сообщения
Вы не можете редактировать свои сообщения
Вы не можете удалять свои сообщения
Вы не можете голосовать в опросах
Вы не можете прикреплять файлы к сообщениям
Вы можете скачивать файлы