Loading...
Error

Скачать Ямато / Otoko-tachi no Yamato (Дзюнья Сато) [2005, военный, DVDRip-AVC] [VO]+[Оригинал]+[Sub] торрент без регистрации

 
Статистика раздачи
Размер:  2,2 GB   |    Скачан:  155 раз
Сидов:  1  [  0 KB/s  ]  
 
Автор Сообщение

Marsianka

[] 

Страна: Япония
Жанр: военный
Год выпуска: 2005
Продолжительность: 02:28:30
Перевод: Любительский (одноголосый) + Оригинальный
Субтитры:русские.
Режиссер: Дзюнья Сато / Junya Sato
В ролях: Такаси Соримати (Shohachi Moriwaki), Шидо Накамура (Mamoru Uchida), Аои Ю (Taeko), Такахиро Фудзимото, Дзюнити Харута (Hisao Koike), Рё Хасидуме (Yoshiharu Kojima), Рйюзо Хаяси (Ryunosuke Kusaka), Хироюки Хираяма (Tamaki), Хиротаро Хонда (Tetsuzo Furumura), Хисаси Игава (The Chairman), Соскэ Икэмацу (Atsushi), Кэндзи Канеко (Machimura)
Описание: Макико Учида прибывает в порт Южной Японии, в надежде найти судно, которое может отвезти её к месту где обрёл покой корабль Императорских Военно-Морских Сил Японии - Ямато 60 лет тому назад. Дело в том, что она дочь пропавшего без вести офицера этого корабля. Неожиданно встретив друга своего отца она узнаёт давнюю историю о сражении за Окинаву...

Качество: DVDRip ( DVD9[Cutom) | dvdbox )
Контейнер: MKV

Видео: AVC, 704x432 @ 1000x432 (2.35:1), 1739 kbps, 25 fps, 0,229 bpp
Аудио №1: русский / AC3 / 2.0 / 48 kHz / 192 kbps
Аудио №2: японский / AC3 / 2.0 / 48 kHz / 192 kbps
Навигация по главам: есть



Format : Matroska
Format version : Version 2
File size : 2.20 GiB
Duration : 2h 28mn
Overall bit rate : 2 119 Kbps
Movie name : = Ямато - последняя битва / Otoko-tachi no Yamato DVDRip by SC Kosmos =
Encoded date : UTC 2014-07-04 13:20:19
Writing application : mkvmerge v3.3.0 ('Language') gebaut am Mar 24 2010 14:59:24
Writing library : libebml v0.8.0 + libmatroska v0.9.0

Video
ID : 1
Format : AVC
Format/Info : Advanced Video Codec
Format profile : High@L4.1
Format settings, CABAC : Yes
Format settings, ReFrames : 12 frames
Codec ID : V_MPEG4/ISO/AVC
Duration : 2h 28mn
Bit rate : 1 739 Kbps
Width : 704 pixels
Height : 432 pixels
Display aspect ratio : 2.35:1
Original display aspect ratio : 2.35:1
Frame rate : 25.000 fps
Color space : YUV
Chroma subsampling : 4:2:0
Bit depth : 8 bits
Scan type : Progressive
Bits/(Pixel*Frame) : 0.229
Stream size : 1.76 GiB (80%)
Title : Ямато - последняя битва / Otoko-tachi no Yamato DVDRip by SC Kosmos
Writing library : x264 core 142 r2431 ac76440
Encoding settings : cabac=1 / ref=12 / deblock=1:-2:-2 / analyse=0x3:0x113 / me=umh / subme=11 / psy=1 / psy_rd=1.00:0.10 / mixed_ref=1 / me_range=32 / chroma_me=1 / trellis=2 / 8x8dct=1 / cqm=0 / deadzone=21,11 / fast_pskip=0 / chroma_qp_offset=-3 / threads=12 / lookahead_threads=1 / sliced_threads=0 / nr=0 / decimate=1 / interlaced=0 / bluray_compat=0 / constrained_intra=0 / bframes=12 / b_pyramid=2 / b_adapt=1 / b_bias=0 / direct=3 / weightb=1 / open_gop=0 / weightp=2 / keyint=250 / keyint_min=25 / scenecut=40 / intra_refresh=0 / rc=2pass / mbtree=0 / bitrate=1739 / ratetol=1.0 / qcomp=0.60 / qpmin=0 / qpmax=69 / qpstep=4 / cplxblur=20.0 / qblur=0.5 / ip_ratio=1.40 / pb_ratio=1.30 / aq=1:1.00
Language : Japanese
Default : No
Forced : No

Audio #1
ID : 2
Format : AC-3
Format/Info : Audio Coding 3
Mode extension : CM (complete main)
Codec ID : A_AC3
Duration : 2h 28mn
Bit rate mode : Constant
Bit rate : 192 Kbps
Channel(s) : 2 channels
Channel positions : Front: L R
Sampling rate : 48.0 KHz
Bit depth : 16 bits
Compression mode : Lossy
Delay relative to video : 23ms
Stream size : 204 MiB (9%)
Title : VO
Language : Russian
Default : Yes
Forced : Yes

Audio #2
ID : 3
Format : AC-3
Format/Info : Audio Coding 3
Mode extension : CM (complete main)
Codec ID : A_AC3
Duration : 2h 28mn
Bit rate mode : Constant
Bit rate : 192 Kbps
Channel(s) : 2 channels
Channel positions : Front: L R
Sampling rate : 48.0 KHz
Bit depth : 16 bits
Compression mode : Lossy
Delay relative to video : 23ms
Stream size : 204 MiB (9%)
Language : Japanese
Default : No
Forced : No

Text
ID : 4
Format : UTF-8
Codec ID : S_TEXT/UTF8
Codec ID/Info : UTF-8 Plain Text
Language : russian
Default : Yes
Forced : No

Menu
00:00:00.000 : en:Chapter 01
00:06:30.040 : en:Chapter 02
00:15:27.200 : en:Chapter 03
00:22:50.080 : en:Chapter 04
00:31:43.680 : en:Chapter 05
00:39:23.560 : en:Chapter 06
00:47:28.400 : en:Chapter 07
00:54:49.280 : en:Chapter 08
01:03:27.960 : en:Chapter 09
01:09:12.880 : en:Chapter 10
01:16:24.640 : en:Chapter 11
01:24:37.800 : en:Chapter 12
01:29:12.840 : en:Chapter 13
01:36:25.680 : en:Chapter 14
01:44:34.240 : en:Chapter 15
01:52:33.960 : en:Chapter 16
02:01:07.760 : en:Chapter 17
02:11:43.680 : en:Chapter 18



Скачать Ямато.Otoko-tachi.no.Yamato.(Дзюнья.Сато).[2005.военный.DVDRip-AVC].[VO]+[Оригинал]+[Sub].torrent без регистрации
Золото ЗОЛОТАЯ РАЗДАЧА! СКАЧАННОЕ НЕ ЗАСЧИТЫВАЕТСЯ! Золото
Дата: Зарегистрирован   [ Тип: внутренний ] Как тут cкачать?
MAGNET ссылка
MAGNET ссылка


Скачать .torrent

11 KB

Статус: проверено DHT
Скачан: торрент - 155 раз, раздача полностью - 11 раз
Размер: 2,2 GB
Оценка:  - (Голосов: 0)
Поблагодарили: 2
Поделиться ссылкой на эту раздачу с друзьями:
В контактеFacebookОдноклассникиTwitterLivejournalМой МирLiveinternet
 

 
Показать сообщения:    


Вы не можете начинать темы
Вы не можете отвечать на сообщения
Вы не можете редактировать свои сообщения
Вы не можете удалять свои сообщения
Вы не можете голосовать в опросах
Вы не можете прикреплять файлы к сообщениям
Вы можете скачивать файлы