Loading...
Error

Скачать Побег невозможен / Escape from absolom (Мартин Кэмпбелл) [1994, фантастика, боевик, триллер, драма, HDTVRip-AVC] [MVO]x2+[AVO]x2+[Sub] торрент без регистрации

 
Статистика раздачи
Размер:  2,9 GB   |    Скачан:  115 раз
Сидов:  1  [  0 KB/s  ]  
 
Автор Сообщение

Marsianka

[] 

✦Название: Побег невозможен
✦Оригинальное название: No Escape (Escape from absolom)
✦Год выпуска: 1994
✦Жанр: фантастика, боевик, триллер, драма
✦Выпущено: США, Columbia Pictures Corporation, Pacific Western, Platinum Pictures (III)
✦Продолжительность: 01:53:01
✦Перевод: Профессиональный (многоголосый закадровый) - Видеосервис / Профессиональный (многоголосый закадровый) - ОРТ / Авторский (одноголосый закадровый) - А. Михалев / Авторский (одноголосый закадровый) - А. Пронин
✦Субтитры: Английские

✦Режиссер: Мартин Кэмпбелл

✦В ролях: Рэй Лиотта, Лэнс Хенриксен, Стюарт Уилсон, Кевин Диллон, Кевин Дж. О`Коннор, Дон Хендерсон, Иэн МакНис, Джек Шеферд, Майкл Лернер, Эрни Хадсон


В 2022 году начальник одной из колоний создал совершенную тюрьму будущего. У нее нет ни стен, ни надзирателей, ни камер. Однако убежать оттуда невозможно. Абсолом — затерянный остров, на котором самые опасные заключенные страны предоставлены самим себе. Навсегда отрезанные от цивилизации, они живут по законам первобытного общества. Одни уже мало чем отличаются от животных, другие еще пытаются сохранить человеческий облик. Капитан морской пехоты Джон Роббинс попал на Абсолом после того, как отказался выполнять несправедливый приказ. И он — единственный из заключенных, кто решил доказать всем, что совершенных тюрем не бывает…



✦Качество: HDTVRip (AVC)
✦Видео: MPEG-4 AVC, 2898 Кбит/с, 1024x424, 25.000 кадр/с
✦Аудио: Русский (AC3, 2 ch, 192 Кбит/с)
Сэмпл
Format : Matroska
Format version : Version 4 / Version 2
File size : 2.90 GiB
Duration : 1h 53mn
Overall bit rate : 3 668 Kbps
Encoded date : UTC 2014-05-14 12:12:22
Writing application : mkvmerge v6.9.1 ('Blue Panther') 64bit built on Apr 18 2014 18:23:38
Writing library : libebml v1.3.0 + libmatroska v1.4.1
Attachment : Yes

Video
ID : 1
Format : AVC
Format/Info : Advanced Video Codec
Format profile : High@L4.1
Format settings, CABAC : Yes
Format settings, ReFrames : 5 frames
Codec ID : V_MPEG4/ISO/AVC
Duration : 1h 53mn
Bit rate : 2 898 Kbps
Width : 1 024 pixels
Height : 424 pixels
Display aspect ratio : 2.40:1
Frame rate mode : Constant
Frame rate : 25.000 fps
Color space : YUV
Chroma subsampling : 4:2:0
Bit depth : 8 bits
Scan type : Progressive
Bits/(Pixel*Frame) : 0.267
Stream size : 2.23 GiB (77%)
Writing library : x264 core 138 r2358 9e941d1
Encoding settings : cabac=1 / ref=5 / deblock=1:-3:-3 / analyse=0x3:0x113 / me=umh / subme=10 / psy=1 / psy_rd=1.00:0.10 / mixed_ref=1 / me_range=32 / chroma_me=1 / trellis=2 / 8x8dct=1 / cqm=0 / deadzone=21,11 / fast_pskip=1 / chroma_qp_offset=-3 / threads=12 / lookahead_threads=1 / sliced_threads=0 / nr=0 / decimate=1 / interlaced=0 / bluray_compat=0 / constrained_intra=0 / bframes=5 / b_pyramid=2 / b_adapt=2 / b_bias=0 / direct=1 / weightb=1 / open_gop=0 / weightp=1 / keyint=250 / keyint_min=24 / scenecut=40 / intra_refresh=0 / rc=2pass / mbtree=0 / bitrate=2898 / ratetol=1.0 / qcomp=0.60 / qpmin=0 / qpmax=69 / qpstep=4 / cplxblur=20.0 / qblur=0.5 / ip_ratio=1.40 / pb_ratio=1.30 / aq=1:1.00
Language : English
Default : Yes
Forced : No

Audio #1
ID : 2
Format : AC-3
Format/Info : Audio Coding 3
Mode extension : CM (complete main)
Format settings, Endianness : Big
Codec ID : A_AC3
Duration : 1h 53mn
Bit rate mode : Constant
Bit rate : 192 Kbps
Channel(s) : 2 channels
Channel positions : Front: L R
Sampling rate : 48.0 KHz
Bit depth : 16 bits
Compression mode : Lossy
Stream size : 155 MiB (5%)
Title : Видеосервис
Language : Russian
Default : Yes
Forced : No

Audio #2
ID : 3
Format : AC-3
Format/Info : Audio Coding 3
Mode extension : CM (complete main)
Format settings, Endianness : Big
Codec ID : A_AC3
Duration : 1h 53mn
Bit rate mode : Constant
Bit rate : 192 Kbps
Channel(s) : 2 channels
Channel positions : Front: L R
Sampling rate : 48.0 KHz
Bit depth : 16 bits
Compression mode : Lossy
Stream size : 155 MiB (5%)
Title : ОРТ
Language : Russian
Default : No
Forced : No

Audio #3
ID : 4
Format : AC-3
Format/Info : Audio Coding 3
Mode extension : CM (complete main)
Format settings, Endianness : Big
Codec ID : A_AC3
Duration : 1h 53mn
Bit rate mode : Constant
Bit rate : 192 Kbps
Channel(s) : 2 channels
Channel positions : Front: L R
Sampling rate : 48.0 KHz
Bit depth : 16 bits
Compression mode : Lossy
Stream size : 155 MiB (5%)
Title : Михалев
Language : Russian
Default : No
Forced : No

Audio #4
ID : 5
Format : AC-3
Format/Info : Audio Coding 3
Mode extension : CM (complete main)
Format settings, Endianness : Big
Codec ID : A_AC3
Duration : 1h 53mn
Bit rate mode : Constant
Bit rate : 192 Kbps
Channel(s) : 2 channels
Channel positions : Front: L R
Sampling rate : 48.0 KHz
Bit depth : 16 bits
Compression mode : Lossy
Stream size : 155 MiB (5%)
Title : Пронин
Language : Russian
Default : No
Forced : No

Text
ID : 6
Format : UTF-8
Codec ID : S_TEXT/UTF8
Codec ID/Info : UTF-8 Plain Text
Language : English
Default : No
Forced : No



Скачать Побег.невозможен.Escape.from.absolom.(Мартин.Кэмпбелл).[1994.фантастика.боевик.триллер.драма.HDTVRip-AVC].[MVO]x2+[AVO]x2+[Sub].torrent без регистрации
Золото ЗОЛОТАЯ РАЗДАЧА! СКАЧАННОЕ НЕ ЗАСЧИТЫВАЕТСЯ! Золото
Дата: Зарегистрирован   [ Тип: внутренний ] Как тут cкачать?
MAGNET ссылка
MAGNET ссылка


Скачать .torrent

15 KB

Статус: проверено DHT
Скачан: торрент - 115 раз, раздача полностью - 5 раз
Размер: 2,9 GB
Оценка:  - (Голосов: 0)
Поблагодарили: 1
Поделиться ссылкой на эту раздачу с друзьями:
В контактеFacebookОдноклассникиTwitterLivejournalМой МирLiveinternet
 

 
Показать сообщения:    


Вы не можете начинать темы
Вы не можете отвечать на сообщения
Вы не можете редактировать свои сообщения
Вы не можете удалять свои сообщения
Вы не можете голосовать в опросах
Вы не можете прикреплять файлы к сообщениям
Вы можете скачивать файлы