Loading...
Error

Скачать Детсадовский полицейский / Kindergarten Cop (Айвэн Рейтмен) [1990, боевик, триллер, комедия, криминал, BDRip] [MVO]x4+[AVO]+[Оригинал]+[Sub] торрент без регистрации

 
Статистика раздачи
Размер:  2,7 GB   |    Скачан:  124 раза
Сидов:  1  [  0 KB/s  ]  
 
Автор Сообщение

Marsianka

[] 

Название: Детсадовский полицейский
Оригинальное название: Kindergarten Cop
Год выпуска: 1990
Жанр: боевик, триллер, комедия, криминал
Выпущено: США, Imagine Entertainment, Universal Pictures
Режиссер: Айвэн Рейтмен
В ролях: Арнольд Шварценеггер, Пенелопа Энн Миллер, Памела Рид, Линда Хант, Ричард Тайсон, Кэрролл Бэйкер, Кэти Мориарти, Джозеф Казинс, Кристиан Казинс, Парк Овералл, Джейн Брук, Ричард Портноу, Том Курландер, Аликс Коромзай, Бетти Лу Хенсон, Хэйди Свидберг, Боб Нельсон, Молли Клитор, Джин Элман, Сьюзэн Барнс, Том Дуган, Рома, Джейсон Стюарт, Ким Делгадо, Рэй Глэнзманн

О фильме: Детектив Джон Кимбл, ветеран грязных улиц Лос-Анджелеса, готов пойти на что угодно, лишь бы найти опасного преступника. Но для того чтобы заманить его в ловушку, ему приходится устроиться воспитателем в детский сад. Но, как выяснилось, с шестилетними бандитами справиться гораздо труднее, чем со взрослыми... И вот когда он завоёвывает уважение малышей и любовь прекрасной учительницы, ему предстоит схватка с преступником...




Качество: BDRip
Размер: 2.7 ГБ
Продолжительность: 01:51:14

Видео: XviD, 1899 Кбит/с, 720x384
Аудио 1: русский, 48 kHz, AC3, 2 ch, 192 kbps avg, [Профессиональный многоголосый]
Аудио 2: русский, 48 kHz, AC3, 2 ch, 192 kbps avg, [Авторский, Алексей Михалёв]

Внешние файлы
Аудио: русский, 48 kHz, AC3, 2 ch, 224 kbps avg, [Профессиональный многоголосый, Премьер Видео]
Аудио: русский, 48 kHz, AC3, 2 ch, 192 kbps avg, [Профессиональный многоголосый, НТВ]
Аудио: русский, 48 kHz, AC3, 2 ch, 192 kbps avg, [Профессиональный многоголосый, ОРТ]
Аудио: русский, 48 kHz, AC3, 2 ch, 192 kbps avg, [Профессиональный многоголосый, ТНТ]
Аудио: русский, 48 kHz, AC3, 2 ch, 192 kbps avg, [Авторский, Павел Прямостанов]
Аудио: английский, 48 kHz, AC3, 2 ch, 192 kbps avg, [Оригинал]
Субтитры: английские (для слабослышащих)
Исходник: Мастер5 (Кинозал)

Сравнение с исходником
Общее
Полное имя : D:VideoDetsadovskij policejskij.1990.BDRipDetsadovskij policejskij.1990.AVO.rus.П.Прямостанов.ac3
Формат : AC-3
Формат/Информация : Audio Coding 3
Размер файла : 153 Мбайт
Продолжительность : 1 ч. 51 м.
Режим общего битрейта : Постоянный
Общий поток : 192 Кбит/сек

Аудио
Формат : AC-3
Формат/Информация : Audio Coding 3
Расширение режима : CM (complete main)
Параметр Endianness формата : Big
Продолжительность : 1 ч. 51 м.
Вид битрейта : Постоянный
Битрейт : 192 Кбит/сек
Каналы : 2 канала
Расположение каналов : Front: L R
Частота : 48,0 КГц
Битовая глубина : 16 бит
Метод сжатия : С потерями
Размер потока : 153 Мбайт (100%)

Общее
Полное имя : D:VideoDetsadovskij policejskij.1990.BDRipDetsadovskij policejskij.1990.BDRip.avi
Формат : AVI
Формат/Информация : Audio Video Interleave
Размер файла : 1,78 Гбайт
Продолжительность : 1 ч. 51 м.
Общий поток : 2297 Кбит/сек
Программа кодирования : VirtualDubMod 1.5.10.2 (build 2540/release)
Библиотека кодирования : VirtualDubMod build 2540/release

Видео
Идентификатор : 0
Формат : MPEG-4 Visual
Профиль формата : Advanced Simple@L5
Параметр BVOP формата : 1
Параметр QPel формата : Нет
Параметр GMC формата : Без точки перехода
Параметр матрицы формата : Default (H.263)
Режим смешивания : Сжатый битовый поток
Идентификатор кодека : XVID
Идентификатор кодека/Подсказка : XviD
Продолжительность : 1 ч. 51 м.
Битрейт : 1899 Кбит/сек
Ширина : 720 пикселей
Высота : 384 пикселя
Соотношение сторон : 1,85:1
Частота кадров : 23,976 кадра/сек
Цветовое пространство : YUV
Субдискретизация насыщенности : 4:2:0
Битовая глубина : 8 бит
Тип развёртки : Прогрессивная
Метод сжатия : С потерями
Бит/(Пиксели*Кадры) : 0.286
Размер потока : 1,48 Гбайт (83%)
Библиотека кодирования : XviD 1.2.1 (UTC 2008-12-04)

Аудио #1
Идентификатор : 1
Формат : AC-3
Формат/Информация : Audio Coding 3
Расширение режима : CM (complete main)
Параметр Endianness формата : Big
Идентификатор кодека : 2000
Продолжительность : 1 ч. 51 м.
Вид битрейта : Постоянный
Битрейт : 192 Кбит/сек
Каналы : 2 канала
Расположение каналов : Front: L R
Частота : 48,0 КГц
Битовая глубина : 16 бит
Метод сжатия : С потерями
Размер потока : 153 Мбайт (8%)
Выравнивание : Разделение по промежуткам
Продолжительность промежутка : 42 мс. (1,00 видеокадр)
Время предзагрузки промежутка : 500 мс.

Аудио #2
Идентификатор : 2
Формат : AC-3
Формат/Информация : Audio Coding 3
Расширение режима : CM (complete main)
Параметр Endianness формата : Big
Идентификатор кодека : 2000
Продолжительность : 1 ч. 51 м.
Вид битрейта : Постоянный
Битрейт : 192 Кбит/сек
Каналы : 2 канала
Расположение каналов : Front: L R
Частота : 48,0 КГц
Битовая глубина : 16 бит
Метод сжатия : С потерями
Размер потока : 153 Мбайт (8%)
Выравнивание : Разделение по промежуткам
Продолжительность промежутка : 42 мс. (1,00 видеокадр)
Время предзагрузки промежутка : 500 мс.

Общее
Полное имя : D:VideoDetsadovskij policejskij.1990.BDRipDetsadovskij policejskij.1990.eng.SDH.srt
Размер файла : 232 Кбайт

Общее
Полное имя : D:VideoDetsadovskij policejskij.1990.BDRipDetsadovskij policejskij.1990.MVO.rus.НТВ.ac3
Формат : AC-3
Формат/Информация : Audio Coding 3
Размер файла : 153 Мбайт
Продолжительность : 1 ч. 51 м.
Режим общего битрейта : Постоянный
Общий поток : 192 Кбит/сек

Аудио
Формат : AC-3
Формат/Информация : Audio Coding 3
Расширение режима : CM (complete main)
Параметр Endianness формата : Big
Продолжительность : 1 ч. 51 м.
Вид битрейта : Постоянный
Битрейт : 192 Кбит/сек
Каналы : 2 канала
Расположение каналов : Front: L R
Частота : 48,0 КГц
Битовая глубина : 16 бит
Метод сжатия : С потерями
Размер потока : 153 Мбайт (100%)

Общее
Полное имя : D:VideoDetsadovskij policejskij.1990.BDRipDetsadovskij policejskij.1990.MVO.rus.ОРТ.ac3
Формат : AC-3
Формат/Информация : Audio Coding 3
Размер файла : 153 Мбайт
Продолжительность : 1 ч. 51 м.
Режим общего битрейта : Постоянный
Общий поток : 192 Кбит/сек

Аудио
Формат : AC-3
Формат/Информация : Audio Coding 3
Расширение режима : CM (complete main)
Параметр Endianness формата : Big
Продолжительность : 1 ч. 51 м.
Вид битрейта : Постоянный
Битрейт : 192 Кбит/сек
Каналы : 2 канала
Расположение каналов : Front: L R
Частота : 48,0 КГц
Битовая глубина : 16 бит
Метод сжатия : С потерями
Размер потока : 153 Мбайт (100%)

Общее
Полное имя : D:VideoDetsadovskij policejskij.1990.BDRipDetsadovskij policejskij.1990.MVO.rus.Премьер Видео.ac3
Формат : AC-3
Формат/Информация : Audio Coding 3
Размер файла : 178 Мбайт
Продолжительность : 1 ч. 51 м.
Режим общего битрейта : Постоянный
Общий поток : 224 Кбит/сек

Аудио
Формат : AC-3
Формат/Информация : Audio Coding 3
Расширение режима : CM (complete main)
Параметр Endianness формата : Big
Продолжительность : 1 ч. 51 м.
Вид битрейта : Постоянный
Битрейт : 224 Кбит/сек
Каналы : 2 канала
Расположение каналов : Front: L R
Частота : 48,0 КГц
Битовая глубина : 16 бит
Метод сжатия : С потерями
Размер потока : 178 Мбайт (100%)

Общее
Полное имя : D:VideoDetsadovskij policejskij.1990.BDRipDetsadovskij policejskij.1990.MVO.rus.ТНТ.ac3
Формат : AC-3
Формат/Информация : Audio Coding 3
Размер файла : 153 Мбайт
Продолжительность : 1 ч. 51 м.
Режим общего битрейта : Постоянный
Общий поток : 192 Кбит/сек

Аудио
Формат : AC-3
Формат/Информация : Audio Coding 3
Расширение режима : CM (complete main)
Параметр Endianness формата : Big
Продолжительность : 1 ч. 51 м.
Вид битрейта : Постоянный
Битрейт : 192 Кбит/сек
Каналы : 2 канала
Расположение каналов : Front: L R
Частота : 48,0 КГц
Битовая глубина : 16 бит
Метод сжатия : С потерями
Размер потока : 153 Мбайт (100%)

Общее
Полное имя : D:VideoDetsadovskij policejskij.1990.BDRipDetsadovskij policejskij.1990.Original.eng.ac3
Формат : AC-3
Формат/Информация : Audio Coding 3
Размер файла : 153 Мбайт
Продолжительность : 1 ч. 51 м.
Режим общего битрейта : Постоянный
Общий поток : 192 Кбит/сек

Аудио
Формат : AC-3
Формат/Информация : Audio Coding 3
Расширение режима : CM (complete main)
Параметр Endianness формата : Big
Продолжительность : 1 ч. 51 м.
Вид битрейта : Постоянный
Битрейт : 192 Кбит/сек
Каналы : 2 канала
Расположение каналов : Front: L R
Частота : 48,0 КГц
Битовая глубина : 16 бит
Метод сжатия : С потерями
Размер потока : 153 Мбайт (100%)



Скачать Детсадовский.полицейский.Kindergarten.Cop.(Айвэн.Рейтмен).[1990.боевик.триллер.комедия.криминал.BDRip].[MVO]x4+[AVO]+[Оригинал]+[Sub].torrent без регистрации
Золото ЗОЛОТАЯ РАЗДАЧА! СКАЧАННОЕ НЕ ЗАСЧИТЫВАЕТСЯ! Золото
Дата: Зарегистрирован   [ Тип: внутренний ] Как тут cкачать?
MAGNET ссылка
MAGNET ссылка


Скачать .torrent

15 KB

Статус: проверено DHT
Скачан: торрент - 124 раз, раздача полностью - 8 раз
Размер: 2,7 GB
Оценка:  - (Голосов: 0)
Поблагодарили: 3
Поделиться ссылкой на эту раздачу с друзьями:
В контактеFacebookОдноклассникиTwitterLivejournalМой МирLiveinternet
 

 
Показать сообщения:    


Вы не можете начинать темы
Вы не можете отвечать на сообщения
Вы не можете редактировать свои сообщения
Вы не можете удалять свои сообщения
Вы не можете голосовать в опросах
Вы не можете прикреплять файлы к сообщениям
Вы можете скачивать файлы