Loading...
Error

Скачать Книга мертвых / Necronomicon (Кристоф Ганс, Сюскэ Канэко, Брайан Юзна) [1993, ужасы, BDRip-AVC] [DVO]+[AVO]+[Оригинал]+[Sub]x2 торрент без регистрации

 
Статистика раздачи
Размер:  2,05 GB   |    Скачан:  127 раз
Сидов:  1  [  0 KB/s  ]  
 
Автор Сообщение

Marsianka

[] 

Книга мертвых / Necronomicon (1993) BDRip-AVC

Информация о фильме
Название: Книга мертвых
Оригинальное название: Necronomicon
Год выхода: 1993
Жанр: ужасы
Режиссер: Кристоф Ганс, Сюскэ Канэко, Брайан Юзна

В ролях: Джеффри Комбс, Тони Азито, Хуан Фернандес, Брайан Юзна, Брюс Пэйн, Белинда Бауэр, Ричард Линч, Мария Форд, Питер Ясенский, Денис Д. Льюис...

О фильме: Писатель Лавкрафт, перенесенный авторами картины в Нью-Йорк 1932 года, попадает в общину странных монахов — хранителей «Некрономикона — Книги мертвых». Обманув «братьев», он находит желанный манускрипт и приступает к чтению… Следующие фрагменты фильма — это рассказы, сочиненные им под воздействием описанного в древней книге.

Фрагмент 1. «Утопленница/The Drowned»
Эдвард, последний из рода де Лапор, приезжает в родовой замок, чтобы принять наследство. Невзирая на предупреждение о страшных событиях, случившихся здесь, он остается на ночь и узнает о трагедии своего дяди — Джеффри и его утонувшей супруги, тетушки Эмы.

Фрагмент 2. «Холод/The Cold»
Сосед Эмили умудряется в дикую жару, которая охватила весь Бостон, поддерживать прохладу. Причину этого, равно как и таинственное исчезновение отчима-насильника Эмили, героиня скоро узнает.

Фрагмент 3. «Шорохи/Whispers»
Полицейская Сара вместе с напарником попадает в аварию. Она спасается, но попадает к парочке каннибалов. В забытьи ей снится страшный сон, что её туловище расчленяют на мясо. Пробуждение будет ещё ужаснее…



Страна: Франция, США
Продолжительность: 01:36:40
Перевод: Профессиональный (двухголосый закадровый), Авторский одноголосый (А. Гаврилов), Оригинал (Английский)

Файл
Кодек: x.264
Качество: BDRip-AVC
Видео: 1024x576 (16:9), 23,976 fps, 2077 kbps, 0.147 bit/pixel
Аудио #1: 48 kHz, AC3 Dolby Digital, 6 ch, ~384.00 kbps | Двухголосый
Аудио #2: 48 kHz, AC3 Dolby Digital, 2 ch, ~192.00 kbps | Авторский
Аудио #3: 48 kHz, AC3 Dolby Digital, 6 ch, ~384.00 kbps | Оригинал
Субтитры: Русские, Английские (отключаемые)
&
Общее
Уникальный идентификатор : 221176854690450684637395516929001781682 (0xA6651CDCE176FD53BD4683435121F9B2)
Полное имя : D:Necronomicon.1993.BDRip-AVC.mkv
Формат : Matroska
Версия формата : Version 4 / Version 2
Размер файла : 2,05 Гбайт
Продолжительность : 1 ч. 36 м.
Общий поток : 3038 Кбит/сек
Название фильма : Книга мертвых / Necronomicon (1993) BDRip-AVC rip by Rulya74
Дата кодирования : UTC 2014-07-06 06:05:30
Программа кодирования : mkvmerge v6.5.0 ('Isn't she lovely') built on Oct 20 2013 12:50:05
Библиотека кодирования : libebml v1.3.0 + libmatroska v1.4.1

Видео
Идентификатор : 1
Формат : AVC
Формат/Информация : Advanced Video Codec
Профиль формата : High@L4.1
Параметр CABAC формата : Да
Параметр ReFrames формата : 12 кадров
Идентификатор кодека : V_MPEG4/ISO/AVC
Продолжительность : 1 ч. 36 м.
Битрейт : 2077 Кбит/сек
Ширина : 1024 пикселя
Высота : 576 пикселей
Соотношение сторон : 16:9
Режим частоты кадров : Постоянный
Частота кадров : 23,976 кадра/сек
Цветовое пространство : YUV
Субдискретизация насыщенности : 4:2:0
Битовая глубина : 8 бит
Тип развёртки : Прогрессивная
Бит/(Пиксели*Кадры) : 0.147
Размер потока : 1,36 Гбайт (66%)
Библиотека кодирования : x264 core 142 r2431 ac76440
Настройки программы : cabac=1 / ref=12 / deblock=1:-2:-1 / analyse=0x3:0x113 / me=umh / subme=11 / psy=1 / psy_rd=1.00:0.00 / mixed_ref=1 / me_range=48 / chroma_me=1 / trellis=2 / 8x8dct=1 / cqm=0 / deadzone=21,11 / fast_pskip=0 / chroma_qp_offset=-2 / threads=11 / lookahead_threads=1 / sliced_threads=0 / nr=0 / decimate=1 / interlaced=0 / bluray_compat=0 / constrained_intra=0 / bframes=7 / b_pyramid=2 / b_adapt=2 / b_bias=0 / direct=1 / weightb=1 / open_gop=0 / weightp=2 / keyint=240 / keyint_min=23 / scenecut=40 / intra_refresh=0 / rc_lookahead=40 / rc=2pass / mbtree=1 / bitrate=2077 / ratetol=1.0 / qcomp=0.60 / qpmin=0 / qpmax=69 / qpstep=4 / cplxblur=20.0 / qblur=0.5 / vbv_maxrate=62500 / vbv_bufsize=78125 / nal_hrd=none / filler=0 / ip_ratio=1.40 / aq=1:1.00
Default : Да
Forced : Нет

Аудио #1
Идентификатор : 2
Формат : AC-3
Формат/Информация : Audio Coding 3
Расширение режима : CM (complete main)
Параметр Endianness формата : Big
Идентификатор кодека : A_AC3
Продолжительность : 1 ч. 36 м.
Вид битрейта : Постоянный
Битрейт : 384 Кбит/сек
Каналы : 6 каналов
Расположение каналов : Front: L C R, Side: L R, LFE
Частота : 48,0 КГц
Битовая глубина : 16 бит
Метод сжатия : С потерями
Размер потока : 266 Мбайт (13%)
Заголовок : Профессиональный (двухголосый закадровый)
Язык : Russian
Default : Да
Forced : Нет

Аудио #2
Идентификатор : 3
Формат : AC-3
Формат/Информация : Audio Coding 3
Расширение режима : CM (complete main)
Параметр Endianness формата : Big
Идентификатор кодека : A_AC3
Продолжительность : 1 ч. 36 м.
Вид битрейта : Постоянный
Битрейт : 192 Кбит/сек
Каналы : 2 канала
Расположение каналов : Front: L R
Частота : 48,0 КГц
Битовая глубина : 16 бит
Метод сжатия : С потерями
Размер потока : 133 Мбайт (6%)
Заголовок : Авторский одноголосый (А. Гаврилов)
Язык : Russian
Default : Нет
Forced : Нет

Аудио #3
Идентификатор : 4
Формат : AC-3
Формат/Информация : Audio Coding 3
Расширение режима : CM (complete main)
Параметр Endianness формата : Big
Идентификатор кодека : A_AC3
Продолжительность : 1 ч. 36 м.
Вид битрейта : Постоянный
Битрейт : 384 Кбит/сек
Каналы : 6 каналов
Расположение каналов : Front: L C R, Side: L R, LFE
Частота : 48,0 КГц
Битовая глубина : 16 бит
Метод сжатия : С потерями
Размер потока : 266 Мбайт (13%)
Заголовок : Оригинал
Язык : English
Default : Нет
Forced : Нет

Текст #1
Идентификатор : 5
Формат : UTF-8
Идентификатор кодека : S_TEXT/UTF8
Идентификатор кодека/Информация : UTF-8 Plain Text
Язык : Russian
Default : Да
Forced : Нет

Текст #2
Идентификатор : 6
Формат : UTF-8
Идентификатор кодека : S_TEXT/UTF8
Идентификатор кодека/Информация : UTF-8 Plain Text
Язык : English
Default : Нет
Forced : Нет

Меню
00:00:00.000 : :Chapter 01
00:06:10.702 : :Chapter 02
00:13:32.144 : :Chapter 03
00:17:56.032 : :Chapter 04
00:22:44.488 : :Chapter 05
00:24:25.462 : :Chapter 06
00:33:04.315 : :Chapter 07
00:34:08.295 : :Chapter 08
00:37:27.743 : :Chapter 09
00:44:21.073 : :Chapter 10
00:53:23.992 : :Chapter 11
00:59:42.077 : :Chapter 12
01:00:12.025 : :Chapter 13
01:06:49.796 : :Chapter 14
01:11:30.618 : :Chapter 15
01:15:28.731 : :Chapter 16
01:25:28.037 : :Chapter 17
01:29:30.280 : :Chapter 18
01:36:40.085 : :Chapter 19



Скачать Книга.мертвых.Necronomicon.(Кристоф.Ганс.Сюскэ.Канэко.Брайан.Юзна).[1993.ужасы.BDRip-AVC].[DVO]+[AVO]+[Оригинал]+[Sub]x2.torrent без регистрации
Золото ЗОЛОТАЯ РАЗДАЧА! СКАЧАННОЕ НЕ ЗАСЧИТЫВАЕТСЯ! Золото
Дата: Зарегистрирован   [ Тип: внутренний ] Как тут cкачать?
MAGNET ссылка
MAGNET ссылка


Скачать .torrent

11 KB

Статус: проверено DHT
Скачан: торрент - 127 раз, раздача полностью - 56 раз
Размер: 2,05 GB
Оценка:  - (Голосов: 0)
Поблагодарили: 3
Поделиться ссылкой на эту раздачу с друзьями:
В контактеFacebookОдноклассникиTwitterLivejournalМой МирLiveinternet
 

 
Показать сообщения:    


Вы не можете начинать темы
Вы не можете отвечать на сообщения
Вы не можете редактировать свои сообщения
Вы не можете удалять свои сообщения
Вы не можете голосовать в опросах
Вы не можете прикреплять файлы к сообщениям
Вы можете скачивать файлы