Loading...
Error

/ Deception ( / Marcel Langenegger) [2008, , , , , BDRip] [DUB]

 
1,46 GB   |    :  146
1  [  0 KB/s  ]  
 

leon030982

[] 

/ Deception
?

: 2008
: / Media Rights Capital
: , , ,
: 01:47:49
: ( )
BD RUS
C:
:
/ Marcel Langenegger
:
(Jonathan McQuarry), (Wyatt Bose), (S), (Lawyer #1), (Lawyer #2), (Assistant Controller), (Tennis Player), (Herr Kleiner / Mr. Moretti), (Waitress)
:
, , , . , . , , ѻ , .
, . , . .

IMDB | | |
: BDRip []
: AVI
: 720x304 (2.37:1), 23.976 fps, XviD build 73 ~1478 kbps avg, 0.28 bit/pixel
: 48 kHz, AC3 Dolby Digital, 3/2 (L,C,R,l,r) + LFE ch, ~448.00 kbps avg
: dalemake

:

General
Complete name : D:\Spisok_kontaktov_2008_BDRip_by_Dalemake.avi
Format : AVI
Format/Info : Audio Video Interleave
File size : 1.46 GiB
Duration : 1h 47mn
Overall bit rate : 1 936 Kbps
Writing application : VirtualDubMod 1.5.10.3 | www.virtualdub-fr.org || (build 2550/release)
Writing library : VirtualDubMod build 2550/release
Video
ID : 0
Format : MPEG-4 Visual
Format profile : Advanced Simple@L5
Format settings, BVOP : 1
Format settings, QPel : No
Format settings, GMC : No warppoints
Format settings, Matrix : Custom
Codec ID : XVID
Codec ID/Hint : XviD
Duration : 1h 47mn
Bit rate : 1 479 Kbps
Width : 720 pixels
Height : 304 pixels
Display aspect ratio : 2.35:1
Frame rate : 23.976 fps
Color space : YUV
Chroma subsampling : 4:2:0
Bit depth : 8 bits
Scan type : Progressive
Compression mode : Lossy
Bits/(Pixel*Frame) : 0.282
Stream size : 1.11 GiB (76%)
Writing library : XviD 73
Audio
ID : 1
Format : AC-3
Format/Info : Audio Coding 3
Mode extension : CM (complete main)
Format settings, Endianness : Big
Codec ID : 2000
Duration : 1h 47mn
Bit rate mode : Constant
Bit rate : 448 Kbps
Channel(s) : 6 channels
Channel positions : Front: L C R, Side: L R, LFE
Sampling rate : 48.0 KHz
Bit depth : 16 bits
Compression mode : Lossy
Stream size : 345 MiB (23%)
Alignment : Split accross interleaves
Interleave, duration : 42 ms (1.00 video frame)
Interleave, preload duration : 500 ms



..Deception.(..Marcel.Langenegger).[2008.....BDRip].[DUB].torrent
  ! ! 
:   [ : ] c?
MAGNET
MAGNET


.torrent

15 KB

: DHT
: - 146 , - 78
: 1,46 GB
5 (: 2)
: 3
:
 FacebookTwitterLivejournal Liveinternet
 

 
: