Loading...
Error

Скачать Рейк / Rake (сезон 01) (Сэм Рэйми, Скотт Уинант и др.) [2014, драма, комедия, WEB-DL] [720p] [ (AlexFilm)]+[Eng] торрент без регистрации

 
Статистика раздачи
Размер:  17,66 GB   |    Скачан:  123 раза
Сидов:  1  [  0 KB/s  ]  
 
Автор Сообщение

МихаНЕзатор

[] 

Информация о фильме
Название: Рейк
Оригинальное название: Rake
Год выхода: 2014
Жанр: драма, комедия
Режиссер: Чери Ноулан, Сэм Рэйми, Адам Аркин


В ролях: Грег Киннер, Миранда Отто, Джон Ортис, Некар Задеган, Бояна Новакович, Тара Саммерс, Йен Коллетти, Марк Аббинк, Эмджей Энтони, Джэма Уильямсон



О фильме: Открытый и искренний, порой даже во вред себе, адвокат по уголовным делам берет на себя самые сложные случаи.







Страна: США
Студия: Blow by Blow Productions, Essential Media, Fedora Entertainment, Sony Pictures Television Distributor
Продолжительность: ~00:45:00 серия
Перевод: Профессиональный (многоголосый закадровый) [AlexFilm] / Оригинал (English)



Файл
Кодек: AVC / AC3
Качество: WEB-DL 720p
Видео: AVC, 1280x718 (16:9), 23.976 fps, 3 848 Kbps (0.175 bit/pixel)
Звук:
Аудио #1: AC-3, 48.0 KHz, 6 ch, 384 Kbps, CBR (Russian)
Аудио #2: AC-3, 48.0 KHz, 6 ch, 384 Kbps, CBR (English)



АНОНСЫ ПОПУЛЯРНЫХ РАЗДАЧ
General
Unique ID : 246483389795523814666448625248392292897 (0xB96EF95FEFC8146FB33DB9A25599AA21)
Complete name : /Rake - Рейк. Сезон 1. AlexFilm. 720p/Rake.US.s01e01.WEB-DL.720p.Rus.Eng.AlexFilm.mkv
Format : Matroska
Format version : Version 4 / Version 2
File size : 1.50 GiB
Duration : 45mn 31s
Overall bit rate : 4 710 Kbps
Movie name : Rake (US) 1x01 Serial Killer @ AlexFilm
Encoded date : UTC 2014-01-26 17:03:10
Writing application : mkvmerge v6.6.0 ('The Edge Of The In Between') built on Dec 1 2013 17:55:00
Writing library : libebml v1.3.0 + libmatroska v1.4.1

Video
ID : 1
Format : AVC
Format/Info : Advanced Video Codec
Format profile : High@L3.1
Format settings, CABAC : No
Format settings, ReFrames : 2 frames
Codec ID : V_MPEG4/ISO/AVC
Duration : 45mn 31s
Bit rate : 3 848 Kbps
Width : 1 280 pixels
Height : 718 pixels
Display aspect ratio : 16:9
Frame rate : 23.976 fps
Color space : YUV
Chroma subsampling : 4:2:0
Bit depth : 8 bits
Scan type : Progressive
Bits/(Pixel*Frame) : 0.175
Stream size : 1.22 GiB (82%)
Language : English
Default : Yes
Forced : No
Color primaries : BT.709-5, BT.1361, IEC 61966-2-4, SMPTE RP177
Transfer characteristics : BT.709-5, BT.1361
Matrix coefficients : BT.709-5, BT.1361, IEC 61966-2-4 709, SMPTE RP177

Audio #1
ID : 2
Format : AC-3
Format/Info : Audio Coding 3
Mode extension : CM (complete main)
Format settings, Endianness : Big
Codec ID : A_AC3
Duration : 45mn 31s
Bit rate mode : Constant
Bit rate : 384 Kbps
Channel(s) : 6 channels
Channel positions : Front: L C R, Side: L R, LFE
Sampling rate : 48.0 KHz
Bit depth : 16 bits
Compression mode : Lossy
Stream size : 125 MiB (8%)
Title : DD5.1 AlexFilm
Language : Russian
Default : Yes
Forced : No

Audio #2
ID : 3
Format : AC-3
Format/Info : Audio Coding 3
Mode extension : CM (complete main)
Format settings, Endianness : Big
Codec ID : A_AC3
Duration : 45mn 31s
Bit rate mode : Constant
Bit rate : 384 Kbps
Channel(s) : 6 channels
Channel positions : Front: L C R, Side: L R, LFE
Sampling rate : 48.0 KHz
Bit depth : 16 bits
Compression mode : Lossy
Stream size : 125 MiB (8%)
Title : DD5.1 Original
Language : English
Default : No
Forced : No



Скачать Рейк.Rake.(сезон.01).(Сэм.Рэйми.Скотт.Уинант.и.др.).[2014.драма.комедия.WEB-DL].[720p].[.(AlexFilm)]+[Eng].torrent без регистрации
Золото ЗОЛОТАЯ РАЗДАЧА! СКАЧАННОЕ НЕ ЗАСЧИТЫВАЕТСЯ! Золото
Дата: Зарегистрирован   [ Тип: внутренний ] Как тут cкачать?
MAGNET ссылка
MAGNET ссылка


Скачать .torrent

47 KB

Статус: проверено DHT
Скачан: торрент - 123 раз, раздача полностью - 37 раз
Размер: 17,66 GB
Оценка:  4 (Голосов: 1)
Поблагодарили: 3
Поделиться ссылкой на эту раздачу с друзьями:
В контактеFacebookОдноклассникиTwitterLivejournalМой МирLiveinternet
 

 
Показать сообщения:    


Вы не можете начинать темы
Вы не можете отвечать на сообщения
Вы не можете редактировать свои сообщения
Вы не можете удалять свои сообщения
Вы не можете голосовать в опросах
Вы не можете прикреплять файлы к сообщениям
Вы можете скачивать файлы