Loading...
Error

Скачать Немезида / Nemesis (Альберт Пьюн) [1992, фантастика, боевик, триллер, BDRip-AVC] [DVO] торрент без регистрации

 
Статистика раздачи
Размер:  1,46 GB   |    Скачан:  115 раз
Сидов:  1  [  0 KB/s  ]  
 
Автор Сообщение

Marsianka

[] 

Информация о фильме
Название: Немезида
Оригинальное название: Nemesis
Год выхода: 1992
Жанр: фантастика, боевик, триллер
Режиссер: Альберт Пьюн
В ролях: Оливье Грюнер, Тим Томерсон, Кэри-Хироюки Тагава, Мерл Кеннеди, Юдзи Окумото, Марджори Монахэн

О фильме:
Кибернетика достигла такого могущества, что любая часть тела может быть заменена, даже мозг. Эта сверхтехнология порождает существа, которые являются скорее киборгами, чем людьми.

Секретный агент Алекс после многочисленых ранений подвергся кибернетической хирургии. Он попытался отказаться вернуться на службу, но его обвинили в контрабанде и имплатировали в сердце бомбу, которая может быть взорвана в любой момент. Теперь у Алекса нет выбора, он должен отыскать похищенный компьютерный чип, за которым отчаянно охотятся террористы. Этот чип — ключ к плану киборгов захватить власть на Земле.

Основная подозреваемая — Джаред, коллега и бывшая любовница Алекса. Но, оказавшись у цели, Алекс обнаруживает, что его используют как наживку, на которую можно «выманить» Джаред и террористов.



Страна: США, Дания
Продолжительность: 01:35:42
Перевод: Профессиональный (двухголосый) (Twister)

Файл
Качество: BDRip-AVC (Nemesis.1992.1080p.Blu-ray Remux.AVC.DD 5.1)
Контейнер: МКV
Видео: 1024x462, MPEG-4 AVC Video, 23.976 fps, 1797 kbps
Аудио: 48 kHz, АС3, 6 ch, 384 kbps
General
Unique ID : 241387139954510680331814009066164380291 (0xB59978DBBB4B90C2A982718DA5F8E283)
Complete name : D:Nemesis.(1992).BDRip-AVC.[-=DoMiNo=-].mkv
Format : Matroska
Format version : Version 2
File size : 1.46 GiB
Duration : 1h 35mn
Overall bit rate : 2 182 Kbps
Encoded date : UTC 2014-07-07 16:47:35
Writing application : mkvmerge v6.1.0 ('Old Devil') built on Mar 4 2013 09:10:42
Writing library : libebml v1.3.0 + libmatroska v1.4.0

Video
ID : 1
Format : AVC
Format/Info : Advanced Video Codec
Format profile : High@L4.1
Format settings, CABAC : Yes
Format settings, ReFrames : 12 frames
Codec ID : V_MPEG4/ISO/AVC
Duration : 1h 35mn
Bit rate : 1 797 Kbps
Width : 1 024 pixels
Height : 462 pixels
Display aspect ratio : 2.2:1
Frame rate mode : Constant
Frame rate : 23.976 fps
Color space : YUV
Chroma subsampling : 4:2:0
Bit depth : 8 bits
Scan type : Progressive
Bits/(Pixel*Frame) : 0.158
Stream size : 1.17 GiB (80%)
Writing library : x264 core 130 r2273 b3065e6
Encoding settings : cabac=1 / ref=12 / deblock=1:-3:-3 / analyse=0x3:0x133 / me=umh / subme=11 / psy=1 / psy_rd=1.00:0.50 / mixed_ref=1 / me_range=24 / chroma_me=1 / trellis=2 / 8x8dct=1 / cqm=0 / deadzone=21,11 / fast_pskip=0 / chroma_qp_offset=-3 / threads=12 / lookahead_threads=4 / sliced_threads=0 / slices=4 / nr=0 / decimate=0 / interlaced=0 / bluray_compat=0 / constrained_intra=0 / bframes=10 / b_pyramid=2 / b_adapt=2 / b_bias=0 / direct=3 / weightb=1 / open_gop=0 / weightp=2 / keyint=250 / keyint_min=23 / scenecut=40 / intra_refresh=0 / rc_lookahead=60 / rc=2pass / mbtree=1 / bitrate=1797 / ratetol=1.0 / qcomp=0.70 / qpmin=0 / qpmax=69 / qpstep=4 / cplxblur=20.0 / qblur=0.5 / ip_ratio=1.40 / aq=2:2.00
Default : Yes
Forced : No

Audio
ID : 2
Format : AC-3
Format/Info : Audio Coding 3
Mode extension : CM (complete main)
Format settings, Endianness : Big
Codec ID : A_AC3
Duration : 1h 35mn
Bit rate mode : Constant
Bit rate : 384 Kbps
Channel(s) : 6 channels
Channel positions : Front: L C R, Side: L R, LFE
Sampling rate : 48.0 KHz
Bit depth : 16 bits
Compression mode : Lossy
Stream size : 263 MiB (18%)
Default : Yes
Forced : No



Скачать Немезида.Nemesis.(Альберт.Пьюн).[1992.фантастика.боевик.триллер.BDRip-AVC].[DVO].torrent без регистрации
Золото ЗОЛОТАЯ РАЗДАЧА! СКАЧАННОЕ НЕ ЗАСЧИТЫВАЕТСЯ! Золото
Дата: Зарегистрирован   [ Тип: внутренний ] Как тут cкачать?
MAGNET ссылка
MAGNET ссылка


Скачать .torrent

15 KB

Статус: проверено DHT
Скачан: торрент - 115 раз, раздача полностью - 9 раз
Размер: 1,46 GB
Оценка:  4 (Голосов: 1)
Поблагодарили: 3
Поделиться ссылкой на эту раздачу с друзьями:
В контактеFacebookОдноклассникиTwitterLivejournalМой МирLiveinternet
 

 
Показать сообщения:    


Вы не можете начинать темы
Вы не можете отвечать на сообщения
Вы не можете редактировать свои сообщения
Вы не можете удалять свои сообщения
Вы не можете голосовать в опросах
Вы не можете прикреплять файлы к сообщениям
Вы можете скачивать файлы