Loading...
Error

Скачать Бабник / Spread (Дэвид МакКензи) [2009, драма, мелодрама, комедия, BDRip-AVC] [Dub] [Лицензия]+[Sub] торрент без регистрации

 
Статистика раздачи
Размер:  1,48 GB   |    Скачан:  157 раз
Сидов:  1  [  0 KB/s  ]  
 
Автор Сообщение

Marsianka

[] 

Бабник / Spread

Cлоган:«Доставляю удовольствие. Дорого»


Год выпуска: 2009
Страна: США
Выпущено: Oceana Media Finance
Жанр: драма, мелодрама, комедия

Режиссёр: Дэвид МакКензи
В ролях: Эштон Катчер, Энн Хэч, Маргарита Левиева, Себастиан Стэн, Мария Кончита Алонсо, Харт Бокнер, Винс Аллен, Ландон Эшворт, Аня Ассанте, Мэдисон Бауэр, Шейн Бролли, Кэндис Буенросто и др.

Перевод: Дубляж
Субтитры: Английские
Главы: Есть

О фильме: Никки молод, неотразим и пользуется безотказным вниманием представительниц противоположного пола. Его роман с Самантой основан исключительно на взаимном интересе. Никки интересует ее кредитная карточка и шикарный особняк, а успешную, но одинокую Саманту — безудержный дикий секс. Но когда Никки встречает Хизер, у циничного жиголо что-то переключается в голове и в сердце…



Автор рипа:

Релиз от:


Качество: ВDRip-AVC(c Spread.2009.Dub.Original. Eng.1080p.BD-Remux)
Продолжительность: 01:37:04

Формат: MKV
Видео кодек: X264
Аудио кодек: AC-3
Видео: 1024x426(2,40:1), 23,976 fps, x264 AVC ~1800 kbps avg, 0.172 bit/pixel
Аудио: 48.0 kHz, Audio Coding 3, Front: L C R, Side: L R, LFE, 384 Kbps

Дата премьеры (мир): 17 января 2009
Дата премьеры (РФ): 6 августа 2009, «Вольга»
raw [info]: 1024x426p 1:1 @ 24000/1001 fps (cfr)
x264 [info]: using SAR=1/1
x264 [info]: using cpu capabilities: MMX2 SSE2Fast SSSE3 SSE4.2 AVX
x264 [info]: profile High, level 4.1

x264 [info]: frame I:839 Avg QP:16.49 size: 76493
x264 [info]: frame P:28782 Avg QP:19.71 size: 23239
x264 [info]: frame B:110021 Avg QP:22.99 size: 5249
x264 [info]: consecutive B-frames: 1.3% 1.7% 5.0% 20.1% 19.7% 39.7% 12.4%
x264 [info]: mb I I16..4: 10.9% 59.6% 29.5%
x264 [info]: mb P I16..4: 0.4% 5.2% 1.4% P16..4: 33.6% 38.8% 13.7% 2.9% 0.4% skip: 3.7%
x264 [info]: mb B I16..4: 0.2% 0.7% 0.1% B16..8: 40.5% 15.1% 2.3% direct: 2.9% skip:38.2% L0:42.9% L1:47.6% BI: 9.5%
x264 [info]: 8x8 transform intra:72.9% inter:58.1%
x264 [info]: direct mvs spatial:96.9% temporal:3.1%
x264 [info]: coded y,uvDC,uvAC intra: 92.3% 89.3% 71.2% inter: 18.9% 16.0% 4.3%
x264 [info]: i16 v,h,dc,p: 28% 13% 14% 45%
x264 [info]: i8 v,h,dc,ddl,ddr,vr,hd,vl,hu: 8% 10% 6% 10% 14% 13% 14% 11% 14%
x264 [info]: i4 v,h,dc,ddl,ddr,vr,hd,vl,hu: 12% 11% 4% 8% 13% 13% 13% 11% 14%
x264 [info]: i8c dc,h,v,p: 40% 24% 18% 18%
x264 [info]: Weighted P-Frames: Y:1.6% UV:0.7%
x264 [info]: ref P L0: 45.5% 12.3% 21.8% 7.2% 7.4% 5.4% 0.4% 0.1%
x264 [info]: ref B L0: 76.5% 13.5% 6.9% 2.2% 0.9%
x264 [info]: ref B L1: 92.2% 7.8%
x264 [info]: kb/s:1800.14

x264 [total]: encoded 139642 frames, 2.09 fps, 1800.14 kb/s
Общее
Уникальный идентификатор : 204140426749919117046230767173641822129 (0x9994041D690A925DA7BE6682A4D5DFB1)
Полное имя : D:ВидеоБабник. 2009г. 1.46 Гб.ВDRip -AVC by Vovan1979(RG WazZzuP)KZ.mkv
Формат : Matroska
Версия формата : Version 4 / Version 2
Размер файла : 1,48 Гбайт
Продолжительность : 1 ч. 37 м.
Общий поток : 2186 Кбит/сек
Название фильма : Бабник. 2009г. 1.46.ВDRip -AVC by Vovan1979(RG WazZzuP)KZ
Дата кодирования : UTC 2014-07-07 11:57:53
Программа кодирования : mkvmerge v6.1.0 ('Old Devil') built on Mar 4 2013 09:10:42
Библиотека кодирования : libebml v1.3.0 + libmatroska v1.4.0

Видео
Идентификатор : 1
Формат : AVC
Формат/Информация : Advanced Video Codec
Профиль формата : High@L4.1
Параметр CABAC формата : Да
Параметр ReFrames формата : 6 кадров
Идентификатор кодека : V_MPEG4/ISO/AVC
Продолжительность : 1 ч. 37 м.
Битрейт : 1800 Кбит/сек
Ширина : 1024 пикселя
Высота : 426 пикселей
Соотношение сторон : 2,40:1
Режим частоты кадров : Постоянный
Частота кадров : 23,976 кадра/сек
Цветовое пространство : YUV
Субдискретизация насыщенности : 4:2:0
Битовая глубина : 8 бит
Тип развёртки : Прогрессивная
Бит/(Пиксели*Кадры) : 0.172
Размер потока : 1,19 Гбайт (80%)
Заголовок : by Vovan1979(RG WazZzuP)KZ
Библиотека кодирования : x264 core 130 r2273 b3065e6
Настройки программы : cabac=1 / ref=6 / deblock=1:-1:-1 / analyse=0x3:0x133 / me=umh / subme=11 / psy=1 / psy_rd=1.00:0.15 / mixed_ref=1 / me_range=16 / chroma_me=1 / trellis=2 / 8x8dct=1 / cqm=0 / deadzone=21,11 / fast_pskip=0 / chroma_qp_offset=-3 / threads=6 / lookahead_threads=1 / sliced_threads=0 / nr=0 / decimate=1 / interlaced=0 / bluray_compat=0 / constrained_intra=0 / bframes=6 / b_pyramid=2 / b_adapt=2 / b_bias=0 / direct=3 / weightb=1 / open_gop=0 / weightp=2 / keyint=250 / keyint_min=23 / scenecut=40 / intra_refresh=0 / rc_lookahead=50 / rc=2pass / mbtree=1 / bitrate=1800 / ratetol=1.0 / qcomp=0.60 / qpmin=0 / qpmax=69 / qpstep=4 / cplxblur=20.0 / qblur=0.5 / ip_ratio=1.40 / aq=1:1.00
Default : Да
Forced : Нет

Аудио
Идентификатор : 2
Формат : AC-3
Формат/Информация : Audio Coding 3
Расширение режима : CM (complete main)
Параметр Endianness формата : Big
Идентификатор кодека : A_AC3
Продолжительность : 1 ч. 37 м.
Вид битрейта : Постоянный
Битрейт : 384 Кбит/сек
Каналы : 6 каналов
Расположение каналов : Front: L C R, Side: L R, LFE
Частота : 48,0 КГц
Битовая глубина : 16 бит
Метод сжатия : С потерями
Размер потока : 267 Мбайт (18%)
Заголовок : Лицензия
Язык : Russian
Default : Да
Forced : Нет

Текст
Идентификатор : 3
Формат : UTF-8
Идентификатор кодека : S_TEXT/UTF8
Идентификатор кодека/Информация : UTF-8 Plain Text
Язык : English
Default : Нет
Forced : Нет

Меню
00:00:00.000 : en:Main Title / One Pick Up Line
00:07:20.921 : en:Creating Equity
00:14:16.878 : en:The Mice Will Party
00:20:07.436 : en:Sorry for Getting Caught
00:28:51.168 : en:No Coffee, No Hikes
00:35:31.359 : en:Hustling the Hustler
00:46:21.050 : en:6 Inches & A Pretty Face
00:50:57.701 : en:Homeless and Friendless
01:00:51.002 : en:Kissing a lot of Frogs
01:13:54.410 : en:A Moment of Clarity
01:20:51.410 : en:A Five for the Grocery Boy
01:30:51.885 : en:End Credits



Скачать Бабник.Spread.(Дэвид.МакКензи).[2009.драма.мелодрама.комедия.BDRip-AVC].[Dub].[Лицензия]+[Sub].torrent без регистрации
Золото ЗОЛОТАЯ РАЗДАЧА! СКАЧАННОЕ НЕ ЗАСЧИТЫВАЕТСЯ! Золото
Дата: Зарегистрирован   [ Тип: внутренний ] Как тут cкачать?
MAGNET ссылка
MAGNET ссылка


Скачать .torrent

15 KB

Статус: проверено DHT
Скачан: торрент - 157 раз, раздача полностью - 86 раз
Размер: 1,48 GB
Оценка:  3 (Голосов: 1)
Поблагодарили: 4
Поделиться ссылкой на эту раздачу с друзьями:
В контактеFacebookОдноклассникиTwitterLivejournalМой МирLiveinternet
 

 

xaleel

[] 

супер фильм
 

Shara

[] 

Конец у фильма не очень веселый, а так фильм, действительно, ничего!
 
Показать сообщения:    


Вы не можете начинать темы
Вы не можете отвечать на сообщения
Вы не можете редактировать свои сообщения
Вы не можете удалять свои сообщения
Вы не можете голосовать в опросах
Вы не можете прикреплять файлы к сообщениям
Вы можете скачивать файлы