Loading...
Error

Скачать Пираты / Caraibi (01-04 из 04) (Ламберто Бава) [1999, приключения, DVDRip] [MVO] торрент без регистрации

 
Статистика раздачи
Размер:  4,37 GB   |    Скачан:  131 раз
Сидов:  31  [  99 KB/s  ]   Личеров:  7  [  0 KB/s  ]  
 
Автор Сообщение

МихаНЕзатор

[] 

Страна: Италия, Германия
Производство: France 2 (FR 2), Mediaset, Taurus Film

Жанр: приключения
Год выпуска: 1999
Продолжительность: 06:26:19 (01:40:32+01:38:36+01:33:55+01:33:16)

Перевод: Профессиональный (многоголосый, закадровый)
Оригинальная аудиодорожка: нет
Cубтитры: нет

Режиссер: Ламберто Бава / Lamberto Bava



В ролях: Марио Адорф, Анна Фальчи, Дженнифер Нитш, Николас Роджерс, Паоло Седжанти, Ремо Джироне, Падма Лакшми, Франческо Касале, Микаэла Фленерова, Бранислав Мартинак, Джанни Музи, Хосе Антонио Родригез, Отто Шевчик...



Описание: Они были братьями, но любили одну и ту же женщину. После ее случайной гибели один уходит на службу к королю Франции и становится капитаном флота его величества, другой становится знаменитым пиратом. Они поклялись убить друг друга. И судьба свела их на морских просторах в грандиозном противостоянии, в битве не на жизнь, а на смерть!

Исходник: 2хDVD9 R5
Тип релиза: DVDRip
Контейнер: AVI

Видео: 688x512 (4:3), 25 fps, XviD ~ 1417 kbps avg, 0.161 bit/pixel
Аудио: 48 kHz, Dolby Digital AC3 2.0, 192 kbps




АНОНСЫ ПОПУЛЯРНЫХ РАЗДАЧ

Общее
Полное имя : Piraty.1999.DVDRip_[New-team]_by_AVP_Studio.avi
Формат : AVI
Формат/Информация : Audio Video Interleave
Размер файла : 1,14 Гбайт
Продолжительность : 1 ч. 40 м.
Общий поток : 1619 Кбит/сек
Программа кодирования : VirtualDubModRus 1.5.10.2 (build 2542/release)
Библиотека кодирования : VirtualDubMod build 2542/release

Видео
Идентификатор : 0
Формат : MPEG-4 Visual
Профиль формата : Advanced Simple@L5
Параметр BVOP формата : 1
Параметр QPel формата : Нет
Параметр GMC формата : Без точки перехода
Параметр матрицы формата : Выборочная
Идентификатор кодека : XVID
Идентификатор кодека/Подсказка : XviD
Продолжительность : 1 ч. 40 м.
Битрейт : 1417 Кбит/сек
Ширина : 688 пикселей
Высота : 512 пикселей
Соотношение сторон : 4:3
Частота кадров : 25,000 кадров/сек
Цветовое пространство : YUV
Субдискретизация насыщенности : 4:2:0
Битовая глубина : 8 бит
Тип развёртки : Прогрессивная
Метод сжатия : С потерями
Бит/(Пиксели*Кадры) : 0.161
Размер потока : 1019 Мбайт (88%)
Библиотека кодирования : XviD 73

Аудио
Идентификатор : 1
Формат : AC-3
Формат/Информация : Audio Coding 3
Расширение режима : CM (complete main)
Параметр Endianness формата : Big
Идентификатор кодека : 2000
Продолжительность : 1 ч. 40 м.
Вид битрейта : Постоянный
Битрейт : 192 Кбит/сек
Каналы : 2 канала
Расположение каналов : Front: L R
Частота : 48,0 КГц
Битовая глубина : 16 бит
Метод сжатия : С потерями
Размер потока : 138 Мбайт (12%)
Выравнивание : Разделение по промежуткам
Продолжительность промежутка : 40 мс. (1,00 видеокадр)
Время предзагрузки промежутка : 500 мс



Скачать Пираты.Caraibi.(01-04.из.04).(Ламберто.Бава).[1999.приключения.DVDRip].[MVO].torrent без регистрации
Золото ЗОЛОТАЯ РАЗДАЧА! СКАЧАННОЕ НЕ ЗАСЧИТЫВАЕТСЯ! Золото
Дата: Зарегистрирован   [ Тип: внешний ] Как тут cкачать?
MAGNET ссылка
MAGNET ссылка


Скачать .torrent

12 KB

Статус: проверено DHT
Скачан: торрент - 131 раз, раздача полностью - 66 раз
Размер: 4,37 GB
Оценка:  - (Голосов: 0)
Поблагодарили: 1
Поделиться ссылкой на эту раздачу с друзьями:
В контактеFacebookОдноклассникиTwitterLivejournalМой МирLiveinternet
 

 
Показать сообщения:    


Вы не можете начинать темы
Вы не можете отвечать на сообщения
Вы не можете редактировать свои сообщения
Вы не можете удалять свои сообщения
Вы не можете голосовать в опросах
Вы не можете прикреплять файлы к сообщениям
Вы можете скачивать файлы