Loading...
Error

Скачать Пираты / Caraibi (01-04 из 04) (Ламберто Бава) [1999, приключения, DVDRip-AVC] [MVO] торрент без регистрации

 
Статистика раздачи
Размер:  4,37 GB   |    Скачан:  140 раз
Сидов:  1  [  0 KB/s  ]  
 
Автор Сообщение

МихаНЕзатор

[] 

Страна: Италия, Германия
Производство: France 2 (FR 2), Mediaset, Taurus Film

Жанр: приключения
Год выпуска: 1999
Продолжительность: 06:26:19 (01:40:32+01:38:36+01:33:55+01:33:16)

Перевод: Профессиональный (многоголосый, закадровый)
Оригинальная аудиодорожка: нет
Cубтитры: нет

Режиссер: Ламберто Бава / Lamberto Bava

В ролях:
Марио Адорф, Анна Фальчи, Дженнифер Нитш, Николас Роджерс, Паоло Седжанти, Ремо Джироне, Падма Лакшми, Франческо Касале, Микаэла Фленерова, Бранислав Мартинак, Джанни Музи, Хосе Антонио Родригез, Отто Шевчик...

Описание:
Они были братьями, но любили одну и ту же женщину. После ее случайной гибели один уходит на службу к королю Франции и становится капитаном флота его величества, другой становится знаменитым пиратом. Они поклялись убить друг друга. И судьба свела их на морских просторах в грандиозном противостоянии, в битве не на жизнь, а на смерть!

Исходник: 2хDVD9 R5
Тип релиза: DVDRip-AVC
Контейнер: MKV

Видео: 696->752x565 (4:3), 25 fps, H264 ~ 1425 kbps avg, 0.145 bit/pixel
Аудио: 48 kHz, Dolby Digital AC3 2.0, 192 kbps




АНОНСЫ ПОПУЛЯРНЫХ РАЗДАЧ

[img=http://uaimage.com/t/3960766_386c5a6f.jpg][/img]

Общее
Полное имя : Piraty.1999.DVDRip-AVC_[New-team]_by_AVP_Studio.mkv
Формат : Matroska
Версия формата : Version 2
Размер файла : 1,11 Гбайт
Продолжительность : 1 ч. 38 м.
Общий поток : 1619 Кбит/сек
Дата кодирования : UTC 2014-07-10 03:00:25
Программа кодирования : mkvmerge v6.1.0 ('Old Devil') built on Mar 4 2013 09:10:42
Библиотека кодирования : libebml v1.3.0 + libmatroska v1.4.0

Видео
Идентификатор : 1
Формат : AVC
Формат/Информация : Advanced Video Codec
Профиль формата : High@L4.1
Параметр CABAC формата : Да
Параметр ReFrames формата : 8 кадров
Идентификатор кодека : V_MPEG4/ISO/AVC
Продолжительность : 1 ч. 38 м.
Битрейт : 1425 Кбит/сек
Ширина : 696 пикселей
Высота : 564 пикселя
Соотношение сторон : 4:3
Режим частоты кадров : Постоянный
Частота кадров : 25,000 кадров/сек
Цветовое пространство : YUV
Субдискретизация насыщенности : 4:2:0
Битовая глубина : 8 бит
Тип развёртки : Прогрессивная
Бит/(Пиксели*Кадры) : 0.145
Размер потока : 983 Мбайт (86%)
Библиотека кодирования : x264 core 138 r2356 a1d3d17
Настройки программы : cabac=1 / ref=8 / deblock=1:-2:-1 / analyse=0x3:0x113 / me=umh / subme=10 / psy=1 / psy_rd=1.00:0.05 / mixed_ref=1 / me_range=32 / chroma_me=1 / trellis=2 / 8x8dct=1 / cqm=0 / deadzone=21,11 / fast_pskip=0 / chroma_qp_offset=-3 / threads=6 / lookahead_threads=1 / sliced_threads=0 / nr=0 / decimate=0 / interlaced=0 / bluray_compat=0 / constrained_intra=0 / bframes=8 / b_pyramid=2 / b_adapt=2 / b_bias=0 / direct=3 / weightb=1 / open_gop=0 / weightp=2 / keyint=250 / keyint_min=25 / scenecut=40 / intra_refresh=0 / rc=2pass / mbtree=0 / bitrate=1425 / ratetol=1.0 / qcomp=0.60 / qpmin=0 / qpmax=69 / qpstep=4 / cplxblur=20.0 / qblur=0.5 / ip_ratio=1.40 / pb_ratio=1.30 / aq=1:1.00
Default : Да
Forced : Нет

Аудио
Идентификатор : 2
Формат : AC-3
Формат/Информация : Audio Coding 3
Расширение режима : CM (complete main)
Параметр Endianness формата : Big
Идентификатор кодека : A_AC3
Продолжительность : 1 ч. 38 м.
Вид битрейта : Постоянный
Битрейт : 192 Кбит/сек
Каналы : 2 канала
Расположение каналов : Front: L R
Частота : 48,0 КГц
Битовая глубина : 16 бит
Метод сжатия : С потерями
Размер потока : 135 Мбайт (12%)
Default : Да
Forced : Нет



Скачать Пираты.Caraibi.(01-04.из.04).(Ламберто.Бава).[1999.приключения.DVDRip-AVC].[MVO].torrent без регистрации
Золото ЗОЛОТАЯ РАЗДАЧА! СКАЧАННОЕ НЕ ЗАСЧИТЫВАЕТСЯ! Золото
Дата: Зарегистрирован   [ Тип: внутренний ] Как тут cкачать?
MAGNET ссылка
MAGNET ссылка


Скачать .torrent

12 KB

Статус: проверено DHT
Скачан: торрент - 140 раз, раздача полностью - 37 раз
Размер: 4,37 GB
Оценка:  - (Голосов: 0)
Поблагодарили: 2
Поделиться ссылкой на эту раздачу с друзьями:
В контактеFacebookОдноклассникиTwitterLivejournalМой МирLiveinternet
 

 
Показать сообщения:    


Вы не можете начинать темы
Вы не можете отвечать на сообщения
Вы не можете редактировать свои сообщения
Вы не можете удалять свои сообщения
Вы не можете голосовать в опросах
Вы не можете прикреплять файлы к сообщениям
Вы можете скачивать файлы