Loading...
Error

Скачать Он так и знал / He Knew He Was Right (сезон 01) (Том Вон) [2004, драма, DVDRip] [MVO] торрент без регистрации

 
Статистика раздачи
Размер:  3,42 GB   |    Скачан:  131 раз
Сидов:  1  [  0 KB/s  ]  
 
Автор Сообщение

МихаНЕзатор

[] 

Информация о фильме
Название: Он так и знал
Оригинальное название: He Knew He Was Right
Год выхода: 2004
Жанр: драма
Режиссер: Том Вон / Tom Vaughan


В ролях: Лора Фрейзер, Джеффри Палмер, Кристина Коул, Анна Мэсси, Джеральдин Джеймс, Стивен Кэмпбелл Мур, Мэгги Оллереншоу, Рэймонд Култхард, Дэвид Теннант, Клоди Блейкли, Фенелла Вулгар, Рон Кук, Билл Найи, Кэролайн Мартин, Эми Марстон, Джоэнна Дэвид, Джейн Лапотэйр, Пэтси Палмер, Мэттью Гуд, Стефен Бересфорд, Кэти МакГиннесс, Элисон Скилбек, Сара Кроуден, Шинед Мэтьюз, Кейт Элдертон, Николас Асбари, Морин Беннетт, Саймон Дэй, Билл Муди, Полли Мур, Саймон Пэйсли Дэй, Крэйг Паркинсон, Невилл Филлипс, Линн Фарли, Джон Элдертон



О фильме: Луис и Эмили Тревельян — «золотая» супружеская пара. Очаровательные, красивые, гордые родители маленького сына. Но когда крестный отец Эмили полковник Осборн начинает навещать ее гораздо чаще, чем этого требуют приличия, Луис считает своим долгом предостеречь жену. Уязвленная недоверием Эмили резко возражает. Супружеская идиллия рушится, и осколки былого счастья склеить практически невозможно.








Страна: Великобритания
Студия: BBC One
Продолжительность: ~00:59:00 серия
Перевод: Профессиональный (многоголосый, закадровый)



Файл
Кодек: DivX / AC3
Качество: DVDRip
Видео: MPEG4, DivX 5, 720x416 (16:9), 29.970 fps, 1 393 Kbps (0.155 bit/pixel)
Звук: AC-3, 48.0 KHz, 2 ch, 192 Kbps, CBR (Russian)


АНОНСЫ ПОПУЛЯРНЫХ РАЗДАЧ
General
Complete name : /On.tak.i.znal(4.iz.4).2004.DivX.DVDRip/On.tak.i.znal.01.avi
Format : AVI
Format/Info : Audio Video Interleave
File size : 701 MiB
Duration : 59mn 1s
Overall bit rate : 1 659 Kbps
Writing application : VirtualDubMod 1.5.4.1 (build 2178/release)
Writing library : VirtualDubMod build 2178/release

Video
ID : 0
Format : MPEG-4 Visual
Format settings, BVOP : 1
Format settings, QPel : No
Format settings, GMC : No warppoints
Format settings, Matrix : Default (H.263)
Muxing mode : Packed bitstream
Codec ID : DX50
Codec ID/Hint : DivX 5
Duration : 59mn 1s
Bit rate : 1 393 Kbps
Width : 720 pixels
Height : 416 pixels
Display aspect ratio : 1.731
Frame rate : 29.970 fps
Color space : YUV
Chroma subsampling : 4:2:0
Bit depth : 8 bits
Scan type : Progressive
Compression mode : Lossy
Bits/(Pixel*Frame) : 0.155
Stream size : 588 MiB (84%)
Writing library : DivX 6.6.1.4

Audio
ID : 1
Format : AC-3
Format/Info : Audio Coding 3
Mode extension : CM (complete main)
Format settings, Endianness : Big
Codec ID : 2000
Duration : 59mn 1s
Bit rate mode : Constant
Bit rate : 192 Kbps
Channel(s) : 2 channels
Channel positions : Front: L R
Sampling rate : 48.0 KHz
Bit depth : 16 bits
Compression mode : Lossy
Stream size : 81.1 MiB (12%)
Alignment : Split accross interleaves
Language : Russian



Скачать Он.так.и.знал.He.Knew.He.Was.Right.(сезон.01).(Том.Вон).[2004.драма.DVDRip].[MVO].torrent без регистрации
Золото ЗОЛОТАЯ РАЗДАЧА! СКАЧАННОЕ НЕ ЗАСЧИТЫВАЕТСЯ! Золото
Дата: Зарегистрирован   [ Тип: внутренний ] Как тут cкачать?
MAGNET ссылка
MAGNET ссылка


Скачать .torrent

19 KB

Статус: проверено DHT
Скачан: торрент - 131 раз, раздача полностью - 4 раз
Размер: 3,42 GB
Оценка:  - (Голосов: 0)
Поблагодарили: 1
Поделиться ссылкой на эту раздачу с друзьями:
В контактеFacebookОдноклассникиTwitterLivejournalМой МирLiveinternet
 

 
Показать сообщения:    


Вы не можете начинать темы
Вы не можете отвечать на сообщения
Вы не можете редактировать свои сообщения
Вы не можете удалять свои сообщения
Вы не можете голосовать в опросах
Вы не можете прикреплять файлы к сообщениям
Вы можете скачивать файлы