Loading...
Error

Скачать Аристократы / Aristocrats (сезон 01+Bonus) (Дэвид Кэффри) [1999, драма, история, DVDRip] [MVO (Кармен Видео)]+[Eng] торрент без регистрации

 
Статистика раздачи
Размер:  4,4 GB   |    Скачан:  141 раз
Сидов:  4  [  0 KB/s  ]   Личеров:  1  [  0 KB/s  ]  
 
Автор Сообщение

МихаНЕзатор

[] 

Информация о фильме
Название: Аристократы
Оригинальное название: Aristocrats
Год выхода: 1999
Жанр: драма, история
Режиссер: Дэвид Кэффри / David Caffrey


В ролях: Серина Гордон | Serena Gordon (Кэролайн), Алан Армстронг | Alun Armstrong (Генри Фокс), Джеральдин Самервилль | Geraldine Somerville (леди Эмили), Бен Дэниелс | Ben Daniels (лорд Кильдер), Джулиан Феллоуз | Julian Fellowes (герцог Ричмондский), Дайан Флетчер | Diane Fletcher (герцогиня Ричмондская), Энн-Мэри Дафф | Anne-Marie Duff (Луиза), Том Маллион | Tom Mullion (Томас Конноли), Джоди Мей | Jodhi May (Сара), Эндрю Хавилл | Andrew Havill (Чарльз Банбари), Джордж Энтон | George Anton (Уильям Оглви), Джон Лайт | John Light (Эдвард Фитцджеральд)



О фильме: По мотивам биографических записок Стеллы Тильард.
Лондон, 1743 год. На фоне пышных балов и политических интриг при дворе короля Великобритании Георга II взору зрителя предстает жизнь обитателей поместья лорда Ричмонда — одного из самых богатых и влиятельных приближенных монарха. Супруги Ричмонд воспитывают пятерых детей: сына Чарльза и дочерей Эмили, Кэролайн, Луизу и Сару. Леди Кэролайн уже совсем взрослая и родители всерьез обеспокоены ее замужеством.
На званом вечере на нее обращает внимание немолодой, но харизматичный государственный деятель Генри Фокс и через некоторое время просит ее руки. Категоричный отказ родителей вынуждает возлюбленных тайно обвенчаться, что вызывает страшный гнев лорда Ричмонда — он навсегда выгоняет дочь из семейного поместья. Но вскоре глава семейства скоропостижно умирает от сердечного приступа и настает время делить наследство…







Страна: Великобритания, Ирландия, США
Студия: BBC, Irish Screen, WGBH
Продолжительность: ~00:50:00 серия
Перевод: Профессиональный (многоголосый, закадровый) [Кармен Видео]



Файл
Кодек: XviD / MP3
Качество: DVDRip
Видео: MPEG4, XviD, 704x384 (16:9), 25.000 fps, 1 598 Kbps (0.236 bit/pixel)
Звук:
Аудио #1: MP3, 48.0 KHz, 2 ch, 128 Kbps, CBR [Rus]
Аудио #2: MP3, 48.0 KHz, 2 ch, 128 Kbps, CBR [Eng]
Субтитры: Русские (2 вида)


АНОНСЫ ПОПУЛЯРНЫХ РАЗДАЧ
General
Complete name : /Aristocrats/Aristocrats - 1.avi
Format : AVI
Format/Info : Audio Video Interleave
File size : 649 MiB
Duration : 48mn 33s
Overall bit rate : 1 868 Kbps
Writing application : VirtualDubModRus 1.5.10.2 (build 2540/release)
Writing library : VirtualDubMod build 2540/release

Video
ID : 0
Format : MPEG-4 Visual
Format profile : Advanced Simple@L5
Format settings, BVOP : 2
Format settings, QPel : No
Format settings, GMC : No warppoints
Format settings, Matrix : Default (MPEG)
Muxing mode : Packed bitstream
Codec ID : XVID
Codec ID/Hint : XviD
Duration : 48mn 33s
Bit rate : 1 598 Kbps
Width : 704 pixels
Height : 384 pixels
Display aspect ratio : 1.85:1
Frame rate : 25.000 fps
Color space : YUV
Chroma subsampling : 4:2:0
Bit depth : 8 bits
Scan type : Progressive
Compression mode : Lossy
Bits/(Pixel*Frame) : 0.236
Stream size : 555 MiB (86%)
Writing library : XviD 1.2.1 (UTC 2008-12-04)

Audio #1
ID : 1
Format : MPEG Audio
Format version : Version 1
Format profile : Layer 3
Mode : Joint stereo
Mode extension : MS Stereo
Codec ID : 55
Codec ID/Hint : MP3
Duration : 48mn 33s
Bit rate mode : Constant
Bit rate : 128 Kbps
Channel(s) : 2 channels
Sampling rate : 48.0 KHz
Compression mode : Lossy
Stream size : 44.4 MiB (7%)
Alignment : Aligned on interleaves
Interleave, duration : 40 ms (1.00 video frame)
Interleave, preload duration : 504 ms

Audio #2
ID : 2
Format : MPEG Audio
Format version : Version 1
Format profile : Layer 3
Mode : Joint stereo
Mode extension : MS Stereo
Codec ID : 55
Codec ID/Hint : MP3
Duration : 48mn 33s
Bit rate mode : Constant
Bit rate : 128 Kbps
Channel(s) : 2 channels
Sampling rate : 48.0 KHz
Compression mode : Lossy
Stream size : 44.4 MiB (7%)
Alignment : Aligned on interleaves
Interleave, duration : 40 ms (1.00 video frame)
Interleave, preload duration : 504 ms
Прилагаются фильм о фильме и 2 вида субтитров.



Скачать Аристократы.Aristocrats.(сезон.01+Bonus).(Дэвид.Кэффри).[1999.драма.история.DVDRip].[MVO.(Кармен.Видео)]+[Eng].torrent без регистрации
Золото ЗОЛОТАЯ РАЗДАЧА! СКАЧАННОЕ НЕ ЗАСЧИТЫВАЕТСЯ! Золото
Дата: Зарегистрирован   [ Тип: внешний ] Как тут cкачать?
MAGNET ссылка
MAGNET ссылка


Скачать .torrent

25 KB

Статус: проверено DHT
Скачан: торрент - 141 раз, раздача полностью - 28 раз
Размер: 4,4 GB
Оценка:  - (Голосов: 0)
Поблагодарили: 1
Поделиться ссылкой на эту раздачу с друзьями:
В контактеFacebookОдноклассникиTwitterLivejournalМой МирLiveinternet
 

 
Показать сообщения:    


Вы не можете начинать темы
Вы не можете отвечать на сообщения
Вы не можете редактировать свои сообщения
Вы не можете удалять свои сообщения
Вы не можете голосовать в опросах
Вы не можете прикреплять файлы к сообщениям
Вы можете скачивать файлы