Loading...
Error

Скачать Посланники / The Messengers (Оксид Пан, Дэнни Пан) [2007, ужасы, триллер, драма, BDRip-AVC] [Dub]+[DVO]+[AVO]+[Sub]x2 торрент без регистрации

 
Статистика раздачи
Размер:  2,87 GB   |    Скачан:  113 раз

Полного источника не было: 22 минуты

 
Автор Сообщение

Marsianka

[] 

Информация о фильме
Название: Посланники
Оригинальное название: The Messengers
Год выхода: 2007
Жанр: ужасы, триллер, драма
Режиссер: Оксид Пан, Дэнни Пан
В ролях: Кристен Стюарт, Дилан МакДермотт, Пенелопа Энн Миллер, Джон Корбетт, Ивэн Тернер, Теодор Тернер, Уильям Б. Дэвис, Брент Бриско, Дастин Миллиган, Джоделль Ферланд, Майкл Дэйнджерфилд, Татьяна Маслани, Ширли МакКуин, Анна Хэган, Блейн Харт, Грэхэм Белл, Кейтлин МакМиллан, Питер Скаулар, Роберт Бенц

О фильме:Cемья Соломон оставляет свою размеренную жизнь в Чикаго ради того, чтобы пожить на уединенной ферме в Северной Дакоте. Среди усыпанных подсолнухами идиллических полей, шестнадцатилетняя Джесс очень скоро понимает, каким кошмаром может обернуться уединение. Сразу после переезда, Джесс и ее трехлетний брат Бен видят зловещих призраков, которых никто кроме них не замечает. Когда призраки начинают вести себя агрессивно, у родителей появляются сомнения в психическом здоровье Джесс. Ее небезоблачное прошлое сталкивается с прошлым тех, кто когда-то жил в этом доме - опасное соседство для раздираемого противоречиями подростка. Ей не верят те, кого она отчаянно пытается предупредить, пока еще не слишком поздно…



Страна: США
Студия: Columbia Pictures, Ghost House Pictures, Scarecrow Productions Inc.
Продолжительность: 01:30:26
Перевод: Дублированный, профессиональный двухголосый, авторский одноголосый

Файл
Кодек: MPEG-4 AVC
Качество: BDRip-AVC
Видео: 3000 Кбит/с, 1024х552, 23.976 кадр/с
Аудио #1: Русский (AC3, 6 ch, 448 Кбит/с) / Дублированный (Мосфильм Мастер)
Аудио #2: Русский (AC3, 6 ch, 448 Кбит/с) / Профессиональный двухголосый
Аудио #3: Русский (AC3, 2 ch, 192 Кбит/с) / Авторский одноголосый (А. Дольский)
Аудио #4: Английский (AC3, 6 ch, 448 Кбит/с)
Субтитры: Русские, английские
Семпл
Общее
Уникальный идентификатор : 221195822893522959843810405335434038910 (0xA668C41143235829A9BC85C8204C8E7E)
Полное имя : F:3Films FРелизыPoslanniki.2007.x264.BDRip.AVC.MediaClub.mkv
Формат : Matroska
Версия формата : Version 4 / Version 2
Размер файла : 2,87 Гбайт
Продолжительность : 1 ч. 30 м.
Общий поток : 4538 Кбит/сек
Название фильма : -= MediaClub =- rip by Lefevr
Дата кодирования : UTC 2014-07-10 12:35:23
Программа кодирования : mkvmerge v6.6.0 ('The Edge Of The In Between') built on Dec 1 2013 17:55:00
Библиотека кодирования : libebml v1.3.0 + libmatroska v1.4.1

Видео
Идентификатор : 1
Формат : AVC
Формат/Информация : Advanced Video Codec
Профиль формата : High@L4.1
Параметр CABAC формата : Да
Параметр ReFrames формата : 9 кадров
Идентификатор кодека : V_MPEG4/ISO/AVC
Продолжительность : 1 ч. 30 м.
Битрейт : 3000 Кбит/сек
Ширина : 1024 пикселя
Высота : 552 пикселя
Соотношение сторон : 1,85:1
Режим частоты кадров : Постоянный
Частота кадров : 23,976 кадра/сек
Цветовое пространство : YUV
Субдискретизация насыщенности : 4:2:0
Битовая глубина : 8 бит
Тип развёртки : Прогрессивная
Бит/(Пиксели*Кадры) : 0.221
Размер потока : 1,84 Гбайт (64%)
Заголовок : Poslanniki.2007.x264.BDRip.AVC.MediaClub
Библиотека кодирования : x264 core 142 r2409+42 04be48a tMod [8-bit@4:2:0 X86]
Настройки программы : cabac=1 / ref=9 / deblock=1:-2:-2 / analyse=0x3:0x133 / me=umh / subme=11 / psy=1 / fade_compensate=0.00 / psy_rd=1.00:0.15 / mixed_ref=1 / me_range=32 / chroma_me=1 / trellis=2 / 8x8dct=1 / cqm=0 / deadzone=21,11 / fast_pskip=0 / chroma_qp_offset=-3 / threads=6 / lookahead_threads=1 / sliced_threads=0 / nr=0 / decimate=0 / interlaced=0 / bluray_compat=0 / constrained_intra=0 / fgo=0 / bframes=8 / b_pyramid=2 / b_adapt=2 / b_bias=0 / direct=3 / weightb=1 / open_gop=0 / weightp=2 / keyint=240 / keyint_min=23 / scenecut=40 / intra_refresh=0 / rc=2pass / mbtree=0 / bitrate=3000 / ratetol=1.0 / qcomp=0.60 / qpmin=0:0:0 / qpmax=69:69:69 / qpstep=4 / cplxblur=20.0 / qblur=0.5 / ip_ratio=1.40 / pb_ratio=1.30 / aq=1:1.00 / aq-sensitivity=10.00 / aq-factor=1.00:1.00:1.00 / aq2=0 / aq3=0
Язык : English
Default : Да
Forced : Нет

Аудио #1
Идентификатор : 2
Формат : AC-3
Формат/Информация : Audio Coding 3
Расширение режима : CM (complete main)
Параметр Endianness формата : Big
Идентификатор кодека : A_AC3
Продолжительность : 1 ч. 30 м.
Вид битрейта : Постоянный
Битрейт : 448 Кбит/сек
Каналы : 6 каналов
Расположение каналов : Front: L C R, Side: L R, LFE
Частота : 48,0 КГц
Битовая глубина : 16 бит
Метод сжатия : С потерями
Размер потока : 290 Мбайт (10%)
Заголовок : TRACK_01_DUB_RUS_MosfilmMaster
Язык : Russian
Default : Да
Forced : Да

Аудио #2
Идентификатор : 3
Формат : AC-3
Формат/Информация : Audio Coding 3
Расширение режима : CM (complete main)
Параметр Endianness формата : Big
Идентификатор кодека : A_AC3
Продолжительность : 1 ч. 30 м.
Вид битрейта : Постоянный
Битрейт : 448 Кбит/сек
Каналы : 6 каналов
Расположение каналов : Front: L C R, Side: L R, LFE
Частота : 48,0 КГц
Битовая глубина : 16 бит
Метод сжатия : С потерями
Размер потока : 290 Мбайт (10%)
Заголовок : TRACK_02_DVO_RUS
Язык : Russian
Default : Нет
Forced : Нет

Аудио #3
Идентификатор : 4
Формат : AC-3
Формат/Информация : Audio Coding 3
Расширение режима : CM (complete main)
Параметр Endianness формата : Big
Идентификатор кодека : A_AC3
Продолжительность : 1 ч. 30 м.
Вид битрейта : Постоянный
Битрейт : 192 Кбит/сек
Каналы : 2 канала
Расположение каналов : Front: L R
Частота : 48,0 КГц
Битовая глубина : 16 бит
Метод сжатия : С потерями
Размер потока : 124 Мбайт (4%)
Заголовок : TRACK_03_AVO_RUS_Dolskij
Язык : Russian
Default : Нет
Forced : Нет

Аудио #4
Идентификатор : 5
Формат : AC-3
Формат/Информация : Audio Coding 3
Расширение режима : CM (complete main)
Параметр Endianness формата : Big
Идентификатор кодека : A_AC3
Продолжительность : 1 ч. 30 м.
Вид битрейта : Постоянный
Битрейт : 448 Кбит/сек
Каналы : 6 каналов
Расположение каналов : Front: L C R, Side: L R, LFE
Частота : 48,0 КГц
Битовая глубина : 16 бит
Метод сжатия : С потерями
Размер потока : 290 Мбайт (10%)
Заголовок : TRACK_04_ORIGINAL_ENG
Язык : Russian
Default : Нет
Forced : Нет

Текст #1
Идентификатор : 6
Формат : UTF-8
Идентификатор кодека : S_TEXT/UTF8
Идентификатор кодека/Информация : UTF-8 Plain Text
Заголовок : TEXT_01_SUB_RUS
Язык : Russian
Default : Нет
Forced : Нет

Текст #2
Идентификатор : 7
Формат : UTF-8
Идентификатор кодека : S_TEXT/UTF8
Идентификатор кодека/Информация : UTF-8 Plain Text
Заголовок : TEXT_02_SUB_ENG
Язык : English
Default : Нет
Forced : Нет

Меню
00:00:00.000 : en:Chapter 1
00:05:46.471 : en:Chapter 2
00:10:49.857 : en:Chapter 3
00:15:51.491 : en:Chapter 4
00:18:59.137 : en:Chapter 5
00:23:08.261 : en:Chapter 6
00:31:21.546 : en:Chapter 7
00:37:07.266 : en:Chapter 8
00:43:41.494 : en:Chapter 9
00:48:10.137 : en:Chapter 10
00:53:38.840 : en:Chapter 11
01:00:08.605 : en:Chapter 12
01:05:41.019 : en:Chapter 13
01:10:54.207 : en:Chapter 14
01:13:26.777 : en:Chapter 15
01:18:37.173 : en:Chapter 16
01:25:01.624 : en:Chapter 17
01:30:26.091 : en:Chapter 18


...last pass...

x264.exe: --pass 2 --bitrate 3000 --preset slow --profile high --level 4.1 --ref 9 --deblock -2:-2 --merange 32 --bframes 8 --trellis 2 --no-fast-pskip --no-dct-decimate --psy-rd 1.00:0.15 --partitions all --subme 11 --no-mbtree --keyint 240 --sar 1:1 --stats "C:1Films CРелизыMessengers.200711111.log" --output "C:1Films CРелизыMessengers.200711111.mkv" "C:Temp374.avs"

avs [info]: 1024x552p 1:1 @ 24000/1001 fps (cfr)
avs [info]: color matrix: undef
x264 [info]: using SAR=1/1
x264 [info]: using cpu capabilities: MMX2 SSE2Fast SSSE3 SSE4.2 AVX
x264 [info]: profile High, level 4.1
x264 [info]: cabac=1 ref=9 deblock=1:-2:-2 analyse=0x3:0x133 me=umh subme=11 psy=1 fade_compensate=0.00 psy_rd=1.00:0.15 mixed_ref=1 me_range=32 chroma_me=1 trellis=2 8x8dct=1 cqm=0 deadzone=21,11 fast_pskip=0 chroma_qp_offset=-3 threads=6 lookahead_threads=1 sliced_threads=0 nr=0 decimate=0 interlaced=0 bluray_compat=0 constrained_intra=0 fgo=0 bframes=8 b_pyramid=2 b_adapt=2 b_bias=0 direct=3 weightb=1 open_gop=0 weightp=2 keyint=240 keyint_min=23 scenecut=40 intra_refresh=0 rc=2pass mbtree=0 bitrate=3000 ratetol=1.0 qcomp=0.60 qpmin=0:0:0 qpmax=69:69:69 qpstep=4 cplxblur=20.0 qblur=0.5 ip_ratio=1.40 pb_ratio=1.30 aq=1:1.00 aq-sensitivity=10.00 aq-factor=1.00:1.00:1.00 aq2=0 aq3=0
x264 [info]: started at Sun Jul 06 10:57:10 2014

x264 [info]: frame I:1082 Avg QP:15.76 size: 99312
x264 [info]: frame P:29610 Avg QP:18.71 size: 32024
x264 [info]: frame B:99412 Avg QP:20.16 size: 9850
Релиз от: | Автор рипа:



Скачать Посланники.The.Messengers.(Оксид.Пан.Дэнни.Пан).[2007.ужасы.триллер.драма.BDRip-AVC].[Dub]+[DVO]+[AVO]+[Sub]x2.torrent без регистрации
Золото ЗОЛОТАЯ РАЗДАЧА! СКАЧАННОЕ НЕ ЗАСЧИТЫВАЕТСЯ! Золото
Дата: Зарегистрирован   [ Тип: внутренний ] Как тут cкачать?
MAGNET ссылка
MAGNET ссылка


Скачать .torrent

15 KB

Статус: проверено DHT
Скачан: торрент - 113 раз, раздача полностью - 4 раз
Размер: 2,87 GB
Оценка:  - (Голосов: 0)
Поблагодарили: 2
Поделиться ссылкой на эту раздачу с друзьями:
В контактеFacebookОдноклассникиTwitterLivejournalМой МирLiveinternet
 

 
Показать сообщения:    


Вы не можете начинать темы
Вы не можете отвечать на сообщения
Вы не можете редактировать свои сообщения
Вы не можете удалять свои сообщения
Вы не можете голосовать в опросах
Вы не можете прикреплять файлы к сообщениям
Вы можете скачивать файлы