Loading...
Error

Скачать 24 часа / 24 (сезон 01) (Джон Кассар, Брэд Тернер, Брайан Спайсер) [2001, драма, криминал, детектив, WEB-DLRip] [Dub] торрент без регистрации

 
Статистика раздачи
Размер:  15,57 GB   |    Скачан:  136 раз
Сидов:  1  [  0 KB/s  ]  
 
Автор Сообщение

МихаНЕзатор

[] 

1 сезон. 1-24 серии.

Год выпуска: 2001
Страна: США
Жанр: драма, криминал, детектив
Продолжительность: 24 серии по 40-45 минут
Перевод: Профессиональный (полное дублирование)
Русские субтитры: нет

Режиссер: Джон Кассар, Брэд Тернер, Брайан Спайсер



В ролях: Кифер Сазерленд, Сара Кларк, Деннис Хэйсберт, Элиша Катберт, Лесли Хоуп, Пенни Джонсон, Карлос Бернард, Сара Уинтер, Ксандер Беркли



Описание:
В сутках 24 часа, но для Джека Бауэра — шефа элитного антитеррористического подразделения ЦРУ — этого времени явно недостаточно.

Ибо за одни сутки он должен успеть сделать практически невозможное: предотвратить убийство кандидата в президенты Дэвида Палмера, вычислить предателя-информатора в своем отделе и отыскать похищенную дочь-подростка. Последнее обстоятельство грозит крахом и без того шаткого семейного счастья. Что готовят ему следующие 24 часа?

Релиз от:


Качество: WEB-DLRip
Формат: AVI

Видео: 688x384 (1.79:1), 23.976 fps, XviD build 73 ~1999 kbps avg, 0.32 bit/pixel
Аудио: 48 kHz, AC3 Dolby Digital, 2/0 (L,R) ch, ~192.00 kbps avg


АНОНСЫ ПОПУЛЯРНЫХ РАЗДАЧ


19.11.2014 г. торрент обновлён, исправлен рассихрон в дубляже в 23-й серии!
General
Complete name : 24_S01E01_WEB-DLRip_[scarabey.org].avi
Format : AVI
Format/Info : Audio Video Interleave
File size : 672 MiB
Duration : 42mn 42s
Overall bit rate : 2 201 Kbps
Writing application : VirtualDubMod 1.5.10.2 (build 2540/release)
Writing library : VirtualDubMod build 2540/release
Video
Format : MPEG-4 Visual
Format profile : Streaming Video@L1
Format settings, BVOP : Yes
Format settings, QPel : No
Format settings, GMC : No warppoints
Format settings, Matrix : Custom
Codec ID : XVID
Codec ID/Hint : XviD
Duration : 42mn 42s
Bit rate : 1 999 Kbps
Width : 688 pixels
Height : 384 pixels
Display aspect ratio : 16/9
Frame rate : 23.976 fps
Resolution : 24 bits
Colorimetry : 4:2:0
Scan type : Progressive
Bits/(Pixel*Frame) : 0.316
Stream size : 611 MiB (91%)
Writing library : XviD 73
Audio
Format : AC-3
Format/Info : Audio Coding 3
Codec ID : 2000
Duration : 42mn 42s
Bit rate mode : Constant
Bit rate : 192 Kbps
Channel(s) : 2 channels
Channel positions : L R
Sampling rate : 48.0 KHz
Stream size : 58.6 MiB (9%)
Alignment : Split accross interleaves
Interleave, duration : 42 ms (1.00 video frame)
Interleave, preload duration : 500 ms



Скачать 24.часа.24.(сезон.01).(Джон.Кассар.Брэд.Тернер.Брайан.Спайсер).[2001.драма.криминал.детектив.WEB-DLRip].[Dub].torrent без регистрации
Золото ЗОЛОТАЯ РАЗДАЧА! СКАЧАННОЕ НЕ ЗАСЧИТЫВАЕТСЯ! Золото
Дата: Зарегистрирован   [ Тип: внутренний ] Как тут cкачать?
MAGNET ссылка
MAGNET ссылка


Скачать .torrent

80 KB

Статус: проверено DHT
Скачан: торрент - 136 раз, раздача полностью - 7 раз
Размер: 15,57 GB
Оценка:  - (Голосов: 0)
Поблагодарили: 2
Поделиться ссылкой на эту раздачу с друзьями:
В контактеFacebookОдноклассникиTwitterLivejournalМой МирLiveinternet
 

 

МихаНЕзатор

[] 

Раздача обновлена.
 
Показать сообщения:    


Вы не можете начинать темы
Вы не можете отвечать на сообщения
Вы не можете редактировать свои сообщения
Вы не можете удалять свои сообщения
Вы не можете голосовать в опросах
Вы не можете прикреплять файлы к сообщениям
Вы можете скачивать файлы