Loading...
Error

Скачать Королева космоса / Queen of Outer Space (Эдвард Берндс) [1958, фантастика, фэнтези, приключения, DVDRip] [AVO (Рутилов)] торрент без регистрации

 
Статистика раздачи
Размер:  1,37 GB   |    Скачан:  119 раз
Сидов:  1  [  0 KB/s  ]  
 
Автор Сообщение

Marsianka

[] 

Название: Королева космоса
Оригинальное название: Queen of Outer Space
Год выпуска: 1958
Жанр: фантастика, фэнтези, приключения
Режиссер: Эдвард Берндс
В ролях: Жа Жа Габор, Эрик Флеминг, Дэйв Уиллок, Лори Митчелл, Лиза Дэвис, Пол Бирч, Патрик Вальц, Барбара Дарроу, Мэрилин Бьюфёрд

Описание: Три американских космонавта отправляются в первый полет к Венере. При приближении к планете в корабль попадает атомный луч и повреждает корпус. Чтобы избежать падения, астронавты вынуждены сделать аварийную посадку. Когда они опускаются на планету, то обнаруживают, что ее населяют только очаровательные женщины в туфлях на высоких каблуках и коротких юбках.




Страна: США, Allied Artists Pictures Corporation
Продолжительность: 01:20:02
Перевод: Авторский (Рутилов)

Качество: DVDRip
Видео: XviD, 2262 Кбит/с, 720x304
Аудио rus: AC3, 2 ch, 192 Кбит/с
Полное имя : E:Queen of Outer Space - tahiy.avi
Формат : AVI
Формат/Информация : Audio Video Interleave
Размер файла : 1,37 Гбайт
Продолжительность : 1 ч. 19 м.
Общий поток : 2463 Кбит/сек
Название фильма : Queen of Outer Space - tahiy
Программа кодирования : VirtualDubMod 1.5.10.3 | www.virtualdub-fr.org || (build 2550/release)

Видео
Идентификатор : 0
Формат : MPEG-4 Visual
Профиль формата : Advanced Simple@L5
Параметр BVOP формата : 1
Параметр QPel формата : Нет
Параметр GMC формата : Без точки перехода
Параметр матрицы формата : Default (MPEG)
Идентификатор кодека : XVID
Идентификатор кодека/Подсказка : XviD
Продолжительность : 1 ч. 19 м.
Битрейт : 2262 Кбит/сек
Ширина : 720 пикселей
Высота : 304 пикселя
Соотношение сторон : 2,35:1
Частота кадров : 23,976 кадра/сек
Цветовое пространство : YUV
Субдискретизация насыщенности : 4:2:0
Битовая глубина : 8 бит
Тип развёртки : Прогрессивная
Метод сжатия : С потерями
Бит/(Пиксели*Кадры) : 0.431
Размер потока : 1,26 Гбайт (92%)
Библиотека кодирования : XviD 1.2.1 (UTC 2008-12-04)

Аудио
Идентификатор : 1
Формат : AC-3
Формат/Информация : Audio Coding 3
Расширение режима : CM (complete main)
Параметр Endianness формата : Big
Идентификатор кодека : 2000
Продолжительность : 1 ч. 19 м.
Вид битрейта : Постоянный
Битрейт : 192 Кбит/сек
Каналы : 2 канала
Расположение каналов : Front: L R
Частота : 48,0 КГц
Битовая глубина : 16 бит
Метод сжатия : С потерями
Размер потока : 109 Мбайт (8%)
Выравнивание : Разделение по промежуткам
Продолжительность промежутка : 42 мс. (1,00 видеокадр)
Время предзагрузки промежутка : 500 мс.



Скачать Королева.космоса.Queen.of.Outer.Space.(Эдвард.Берндс).[1958.фантастика.фэнтези.приключения.DVDRip].[AVO.(Рутилов)].torrent без регистрации
Золото ЗОЛОТАЯ РАЗДАЧА! СКАЧАННОЕ НЕ ЗАСЧИТЫВАЕТСЯ! Золото
Дата: Зарегистрирован   [ Тип: внутренний ] Как тут cкачать?
MAGNET ссылка
MAGNET ссылка


Скачать .torrent

14 KB

Статус: проверено DHT
Скачан: торрент - 119 раз, раздача полностью - 10 раз
Размер: 1,37 GB
Оценка:  - (Голосов: 0)
Поблагодарили: 1
Поделиться ссылкой на эту раздачу с друзьями:
В контактеFacebookОдноклассникиTwitterLivejournalМой МирLiveinternet
 

 
Показать сообщения:    


Вы не можете начинать темы
Вы не можете отвечать на сообщения
Вы не можете редактировать свои сообщения
Вы не можете удалять свои сообщения
Вы не можете голосовать в опросах
Вы не можете прикреплять файлы к сообщениям
Вы можете скачивать файлы