Loading...
Error

Скачать Доминион / Dominion (Сезон 1, Серия 1-8 из 8) (Скотт Чарльз Стюарт) [2014, Ужасы, фантастика, фэнтези, боевик, драма, WEBDLRip-AVC 1080р] [MVO] [LostFilm] торрент без регистрации

 
Статистика раздачи
Размер:  20,01 GB   |    Скачан:  5511 раз
Сидов:  1  [  0 KB/s  ]  
 
Автор Сообщение

Nikolai.Baranov

[] 





Доминион / Dominion




Год выпуска: 2014
Выпущено: США, Bold Films, Sony Pictures Television, Universal Cable Productions
Жанр:: Ужасы, фантастика, фэнтези, боевик, драма
Продолжительность: 1 x 01:06:12, 6 x 00:42:00
Сезон: 1
Серия: 1-8
Количество серий в сезоне: 8
Озвучка:Профессиональная многоголосая закадровая(LostFilm_TV)
Субтитры: НЕТ

Официальный сайт сериала



Режиссер: Скотт Чарльз Стюарт

В ролях: Кристофер Иган, Том Уисдом, Карл Бьюкс, Алан Дэйл, Крис Фишер, Шивани Гаи, Розалинд Халстэд, Энтони Хэд, Антон Дэвид Джефта, Лэнгли Кирквуд, Роксанна МакКи


Новый сериал Доминион основан на персонажах фильма Легион. Сюжет развернется спустя много после действий фильма. В 25 году после нашей эры , возглавляемая архангелом Гавриилом ведет кровопролитную против всего человечества. Один лишь архангел Михаил решает принять сторону людей и выступить против себе подобных. После долгих 25 сражений, укрепившиеся города защищают оставшихся в живых и держат последнюю линию обороны. Самый большой среди уцелевших городов — Вега (бывший Лас Вегас). Казалось бы, в этой люди должны быть сплочены перед лицом врага. Но в Веге ведется постоянное двух сторон за контроль над городом и готовится государственный переворот. В это же время молодой человек, непокорный солдат, отправляется в путешествие, в ходе которого он делает потрясающее открытие о том, что он, по всей видимости – спаситель человечества.

Качество : WEB-DLRip-AVC 1080p
Формат: MPEG-4
Видео кодек: H264
Видео: 7272ит/сек,1920х1080(16.9),в 25.000кадр/сек,AVC(Baseline@L4.0)(1Ref Frames)
Аудио кодек: AAC
Аудио Russian:288Кбит/сек,48.0КГц,2канала,AAC,(Version4)(LC)


Звуковая дорожка сделана путем наложения чистого голоса озвучивателей на центральный канал оригинальной дорожки. Качество идентично звуковой дорожке.



01 Пилот (Pilot)
02 С Богом! (Godspeed)
03 Осколок (Broken Places)
04 Потоп (The Flood)
05 Взятое взаймы (Something Borrowed)
06 Иссиня-черные глаза (Black Eyes Blue)
07 Уроборос (Ouroboros)
08 Опасайся своих близких (Beware Those Closest to You)



General
Полное имя : D:\Ф А Н Т А С Т И К А +П Р И К Л Ю Ч Е Н И Я + Ф Э Н Т А З И\Доминион\Dominion_2014_S01_RUS[LostFilm_TV]_x264_Nikolai.Baranov_WEB-DLRip-AVC_(1080p)\Dominion_2014_S01Е01_RUS[LostFilm_TV]_x264_Nikolai.Baranov_WEB-DLRip-AVC_(1080p).mp4
Формат : MPEG-4
Профиль формата : Base Media
Идентификатор кодека : isom
Размер файла : 3.50 GiB
Продолжительность : 1h 6mn
Режим общего битрейта : Variable
Общий поток : 7 561 Kbps
Название фильма : Crossbones 1x01 The Devil's Dominion @ AlexFilm
Дата кодирования : UTC 2014-06-28 22:26:30
Дата пометки : UTC 2014-06-28 22:26:30
Программа кодирования : Lavf51.12.1

Video
Идентификатор : 1
Формат : AVC
Формат/Информация : Advanced Video Codec
Профиль формата : Baseline@L4.0
Параметр CABAC формата : No
Параметр ReFrames формата : 1 frame
Параметр GOP формата : M=1, N=12
Идентификатор кодека : avc1
Идентификатор кодека/Информация : Advanced Video Coding
Продолжительность : 1h 6mn
Вид битрейта : Variable
Битрейт : 7 272 Kbps
Максимальный битрейт : 10.5 Mbps
Ширина : 1 920 pixels
Высота : 1 080 pixels
Соотношение сторон : 16:9
Режим частоты кадров : Constant
Частота кадров : 25.000 fps
Частота кадров в оригинале : 24.000 fps
Цветовое пространство : YUV
Субдискретизация насыщенности : 4:2:0
Битовая глубина : 8 bits
Тип развёртки : Progressive
Бит/(Пиксели*Кадры) : 0.140
Размер потока : 3.36 GiB (96%)
Дата кодирования : UTC 2014-06-28 22:26:30
Дата пометки : UTC 2014-06-28 22:26:30

Audio
Идентификатор : 2
Формат : AAC
Формат/Информация : Advanced Audio Codec
Профиль формата : LC
Идентификатор кодека : 40
Продолжительность : 1h 6mn
Вид битрейта : Variable
Битрейт : 288 Kbps
Каналы : 2 channels
Channel(s)_Original : 6 channels
Расположение каналов : Front: L C R, Side: L R, LFE
Частота : 48.0 KHz
Метод сжатия : Lossy
Размер потока : 135 MiB (4%)
Дата кодирования : UTC 2014-06-28 22:26:30
Дата пометки : UTC 2014-06-28 22:26:30







1. Открыть торрент
2. Снять галки с тех файлов торрента, которые мы не хотим закачивать. Оставляем только на нужных нам файлах (файле).
3. Нажать О.К.

В клиенте utorrent

Инструкция

1) Открыть торрент


2) Снять галки с тех файлов торрента, которые мы не хотим закачивать:

* либо вручную, снимая с каждого файла галку( скрин №1)
* либо, нажав кнопку "Снять метки (Select None)", сняв сразу со всех файлов(скрин №2)
№1

№2

Оставляем только на нужных нам файлах (файле).

3)Нажать О.К




Внимание!!! 17.08. 2014. РАЗДАЧА ОБНОВЛЕНА.ФИНАЛ СЕЗОНА.ОБНОВИТЕ ТОРЕНТ ФАЙЛ.ПРИЯТНОГО ПРОСМОТРА .

Релиз от: Nikolai.Baranov










Скачать Доминион.Dominion.(Сезон.1.Серия.1-8.из.8).(Скотт.Чарльз.Стюарт).[2014.Ужасы.фантастика.фэнтези.боевик.драма.WEBDLRip-AVC.1080р].[MVO].[LostFilm].torrent без регистрации
Золото ЗОЛОТАЯ РАЗДАЧА! СКАЧАННОЕ НЕ ЗАСЧИТЫВАЕТСЯ! Золото
Дата: Зарегистрирован   [ Тип: внутренний ] Как тут cкачать?
MAGNET ссылка
MAGNET ссылка


Скачать .torrent

52 KB

Статус: проверено DHT
Скачан: торрент - 5511 раз, раздача полностью - 4 раз
Размер: 20,01 GB
Оценка:  5 (Голосов: 1)
Поблагодарили: 5
Поделиться ссылкой на эту раздачу с друзьями:
В контактеFacebookОдноклассникиTwitterLivejournalМой МирLiveinternet
 

 
Показать сообщения:    


Вы не можете начинать темы
Вы не можете отвечать на сообщения
Вы не можете редактировать свои сообщения
Вы не можете удалять свои сообщения
Вы не можете голосовать в опросах
Вы не можете прикреплять файлы к сообщениям
Вы можете скачивать файлы