Loading...
Error

Скачать Пришельцы-завоеватели / Evil Aliens (Джэйк Уэст) [2005, ужасы, фантастика, очень чёрная комедия, BDRip-AVC] [VO]+[Sub]x2 торрент без регистрации

 
Статистика раздачи
Размер:  1,64 GB   |    Скачан:  158 раз
Сидов:  1  [  0 KB/s  ]  
 
Автор Сообщение

Marsianka

[] 

Информация о фильме
Название: Пришельцы-завоеватели
Оригинальное название: Evil Aliens
Год выхода: 2005
Жанр: ужасы, фантастика, очень чёрная комедия
Режиссер: Джэйк Уэст
В ролях: Эмили Бут,Джэми Ханниборн,Сэм Батлер,Джоди Шоу,Питер О`Коннор,Ник Смитерс,Норман Ловетт,Кристофер Адамсон,Дженнифер Эванс,Марк Ричард Хэйес

О фильме: «Кровавое столкновение»
Группа английских уфологов отправляется на валлийский остров, на котором был недавно похищен пришельцами молодой человек. Они приезжают в скромный домик, где проживает группа местных жителей и находится девушка — свидетельница недавних событий, которую пришельцы непостижимым образом пощадили. В то время как учёные разворачивают своё оборудование, коварные инопланетяне приступают к массовому вторжению на Землю




Страна: Великобритания
Студия: Falcon Media Limited
Продолжительность: 01:33:07
Перевод: Любительский одноголосый – Zamez

Файл
Кодек: h.264 (MKV)
Качество: BDRip-AVC
Видео: AVC, 1024 x 576, ~1828 kbps
Звук: Русский: AC-3, 2 ch, 192 kbps / Английский: AC-3, 6 ch, 448 kbps
Субтитры: Русские, Английские

Семпл
Общее
Уникальный идентификатор : 172264359602573868726876498232513422143 (0x8198E8AA74581677A19DEA8DDC50633F)
Полное имя : G: Пришельцы-завоеватели Evil Aliens (2005)Новая папкаEvil.Aliens.UNRATED.2005.BDRip-AVC.mkv
Формат : Matroska
Версия формата : Version 4 / Version 2
Размер файла : 1,64 Гбайт
Продолжительность : 1 ч. 33 м.
Общий поток : 2519 Кбит/сек
Дата кодирования : UTC 2014-07-10 18:07:41
Программа кодирования : mkvmerge v6.9.1 ('Blue Panther') 64bit built on Apr 18 2014 18:23:38
Библиотека кодирования : libebml v1.3.0 + libmatroska v1.4.1

Видео
Идентификатор : 1
Формат : AVC
Формат/Информация : Advanced Video Codec
Профиль формата : Main@L4.1
Параметр CABAC формата : Да
Параметр ReFrames формата : 1 кадр
Идентификатор кодека : V_MPEG4/ISO/AVC
Продолжительность : 1 ч. 33 м.
Битрейт : 1828 Кбит/сек
Ширина : 1024 пикселя
Высота : 576 пикселей
Соотношение сторон : 16:9
Режим частоты кадров : Постоянный
Частота кадров : 23,976 кадра/сек
Цветовое пространство : YUV
Субдискретизация насыщенности : 4:2:0
Битовая глубина : 8 бит
Тип развёртки : Прогрессивная
Бит/(Пиксели*Кадры) : 0.129
Размер потока : 1,19 Гбайт (73%)
Default : Да
Forced : Нет

Аудио #1
Идентификатор : 2
Формат : AC-3
Формат/Информация : Audio Coding 3
Расширение режима : CM (complete main)
Параметр Endianness формата : Big
Идентификатор кодека : A_AC3
Продолжительность : 1 ч. 33 м.
Вид битрейта : Постоянный
Битрейт : 192 Кбит/сек
Каналы : 2 канала
Расположение каналов : Front: L R
Частота : 48,0 КГц
Битовая глубина : 16 бит
Метод сжатия : С потерями
Размер потока : 128 Мбайт (8%)
Заголовок : AC3 2.0 192Kbps @ Любительский одноголосый (Zamez)
Язык : Russian
Default : Да
Forced : Нет

Аудио #2
Идентификатор : 3
Формат : AC-3
Формат/Информация : Audio Coding 3
Расширение режима : CM (complete main)
Параметр Endianness формата : Big
Идентификатор кодека : A_AC3
Продолжительность : 1 ч. 33 м.
Вид битрейта : Постоянный
Битрейт : 448 Кбит/сек
Каналы : 6 каналов
Расположение каналов : Front: L C R, Side: L R, LFE
Частота : 48,0 КГц
Битовая глубина : 16 бит
Метод сжатия : С потерями
Размер потока : 298 Мбайт (18%)
Default : Нет
Forced : Нет

Текст #1
Идентификатор : 4
Формат : UTF-8
Идентификатор кодека : S_TEXT/UTF8
Идентификатор кодека/Информация : UTF-8 Plain Text
Язык : Russian
Default : Да
Forced : Нет

Текст #2
Идентификатор : 5
Формат : UTF-8
Идентификатор кодека : S_TEXT/UTF8
Идентификатор кодека/Информация : UTF-8 Plain Text
Язык : English
Default : Нет
Forced : Нет



Скачать Пришельцы-завоеватели.Evil.Aliens.(Джэйк.Уэст).[2005.ужасы.фантастика.очень.чёрная.комедия.BDRip-AVC].[VO]+[Sub]x2.torrent без регистрации
Золото ЗОЛОТАЯ РАЗДАЧА! СКАЧАННОЕ НЕ ЗАСЧИТЫВАЕТСЯ! Золото
Дата: Зарегистрирован   [ Тип: внутренний ] Как тут cкачать?
MAGNET ссылка
MAGNET ссылка


Скачать .torrent

17 KB

Статус: проверено DHT
Скачан: торрент - 158 раз, раздача полностью - 34 раз
Размер: 1,64 GB
Оценка:  5 (Голосов: 1)
Поблагодарили: 2
Поделиться ссылкой на эту раздачу с друзьями:
В контактеFacebookОдноклассникиTwitterLivejournalМой МирLiveinternet
 

 
Показать сообщения:    


Вы не можете начинать темы
Вы не можете отвечать на сообщения
Вы не можете редактировать свои сообщения
Вы не можете удалять свои сообщения
Вы не можете голосовать в опросах
Вы не можете прикреплять файлы к сообщениям
Вы можете скачивать файлы