Loading...
Error

Скачать Голубой гром / Blue Thunder (Джон Бэдэм / John Badham) [1983, Боевик, триллер, драма, криминал, BDRip] [AVO] (Л.Володарский) + Original Eng торрент без регистрации

 
Статистика раздачи
Размер:  2,13 GB   |    Скачан:  107 раз
Сидов:  1  [  0 KB/s  ]  
 
Автор Сообщение

leon030982

[] 

Голубой гром / Blue Thunder


Год выпуска: 1983
Страна: США
Жанр: Боевик, триллер, драма, криминал
Продолжительность: 01:49:15
Перевод: Авторский (одноголосый, закадровый) [Леонид Володарский]
Cубтитры: нет
Оригинальная аудиодорожка: английский

Режиссёр: Джон Бэдэм / John Badham

В ролях: Рой Шайдер, Уоррен Оутс, Кэнди Кларк, Дэниел Стерн, Пол Роублинг, Дэвид Шайнер, Джо Сантос, Малкольм МакДауэлл, Эд Бернард, Джейсон Бернард

Описание: «Голубой гром» — это чудо-вертолет, оснащенный супертехникой. Он разработан для того, чтобы надежно оградить Лос-Анджелес от террористов. Но пилот Мёрфи узнает нечто такое, что ему знать вовсе не следовало.
И вот уже вертолётчику самому приходится защищаться, и единственный путь к спасению — разоблачить высокопоставленных заговорщиков и их наймитов.



Качество видео: BDRip
Формат: AVI
Видео кодек:
Аудио кодек:
Видео: XviD 72, 720x304 (2.37:1), 23.976 fps, 1945 kbps avg, 0.37 bit/pixel
Аудио №1: AC3 Dolby Digital, 48000Hz, 2/0 (L,R) ch, 384 kbps avg
Аудио №2: AC3 Dolby Digital, 48 kHz, 3/2 (L,C,R,l,r) + LFE ch, 448 kbps

Цитата:

За оцифрованную дорожку из личной коллекции VHS благодарим - alenavova
За синхронизацию этой дорожки благодарим - JUSTKANT.
Источник видео от porhaleks
Общее
Полное имя : D:\Blue Thunder (Голубой гром) Volodarsky eng.avi
Формат : AVI
Формат/Информация : Audio Video Interleave
Профиль формата : OpenDML
Размер файла : 2,13 Гбайт
Продолжительность : 1 ч. 49 м.
Общий поток : 2796 Кбит/сек
Название фильма : Голубой гром / Blue Thunder (1983) BDRip

Жанр : боевик, триллер, криминал
Программа кодирования : VirtualDubMod 1.5.10.3 (build 2550/release)
Библиотека кодирования : VirtualDubMod build 2550/release
Примечание : 22.06.2012
Видео
Идентификатор : 0
Формат : MPEG-4 Visual
Профиль формата : Advanced Simple@L5
Параметр BVOP формата : 1
Параметр QPel формата : Нет
Параметр GMC формата : Без точки перехода
Параметр матрицы формата : Выборочная
Идентификатор кодека : XVID
Идентификатор кодека/Подсказка : XviD
Продолжительность : 1 ч. 49 м.
Битрейт : 1946 Кбит/сек
Ширина : 720 пикселей
Высота : 304 пикселя
Соотношение сторон : 2,35:1
Частота кадров : 23,976 кадра/сек
Цветовое пространство : YUV
Субдискретизация насыщенности : 4:2:0
Битовая глубина : 8 бит
Тип развёртки : Прогрессивная
Метод сжатия : С потерями
Бит/(Пиксели*Кадры) : 0.371
Размер потока : 1,48 Гбайт (70%)
Библиотека кодирования : XviD 72
Аудио #1
Идентификатор : 1
Формат : AC-3
Формат/Информация : Audio Coding 3
Расширение режима : CM (complete main)
Параметр Endianness формата : Big
Идентификатор кодека : 2000
Продолжительность : 1 ч. 49 м.
Вид битрейта : Постоянный
Битрейт : 384 Кбит/сек
Каналы : 2 канала
Расположение каналов : Front: L R
Частота : 48,0 КГц
Битовая глубина : 16 бит
Метод сжатия : С потерями
Размер потока : 300 Мбайт (14%)
Выравнивание : Разделение по промежуткам
Продолжительность промежутка : 42 мс. (1,00 видеокадр)
Время предзагрузки промежутка : 500 мс.
Аудио #2
Идентификатор : 2
Формат : AC-3
Формат/Информация : Audio Coding 3
Расширение режима : CM (complete main)
Параметр Endianness формата : Big
Идентификатор кодека : 2000
Продолжительность : 1 ч. 49 м.
Вид битрейта : Постоянный
Битрейт : 448 Кбит/сек
Каналы : 6 каналов
Расположение каналов : Front: L C R, Side: L R, LFE
Частота : 48,0 КГц
Битовая глубина : 16 бит
Метод сжатия : С потерями
Размер потока : 350 Мбайт (16%)
Выравнивание : Разделение по промежуткам
Продолжительность промежутка : 42 мс. (1,00 видеокадр)
Время предзагрузки промежутка : 500 мс.



Скачать Голубой.гром.Blue.Thunder.(Джон.Бэдэм.John.Badham).[1983.Боевик.триллер.драма.криминал.BDRip].[AVO].(Л.Володарский).+.Original.Eng.torrent без регистрации
Золото ЗОЛОТАЯ РАЗДАЧА! СКАЧАННОЕ НЕ ЗАСЧИТЫВАЕТСЯ! Золото
Дата: Зарегистрирован   [ Тип: внутренний ] Как тут cкачать?
MAGNET ссылка
MAGNET ссылка


Скачать .torrent

11 KB

Статус: проверено DHT
Скачан: торрент - 107 раз, раздача полностью - 30 раз
Размер: 2,13 GB
Оценка:  - (Голосов: 0)
Поблагодарили: 3
Поделиться ссылкой на эту раздачу с друзьями:
В контактеFacebookОдноклассникиTwitterLivejournalМой МирLiveinternet
 

 
Показать сообщения:    


Вы не можете начинать темы
Вы не можете отвечать на сообщения
Вы не можете редактировать свои сообщения
Вы не можете удалять свои сообщения
Вы не можете голосовать в опросах
Вы не можете прикреплять файлы к сообщениям
Вы можете скачивать файлы