Loading...
Error

Скачать Полный облом / Big Nothing (Жан-Баптист Андреа / Jean-Baptiste Andrea) [2006 г., триллер, комедия, криминал, BDRip] [AVO] (К.Филонов) торрент без регистрации

 
Статистика раздачи
Размер:  1,26 GB   |    Скачан:  110 раз
Сидов:  1  [  0 KB/s  ]  
 
Автор Сообщение

leon030982

[] 


Полный облом
Big Nothing


Год выпуска: 2006
Страна: Великобритания
Жанр: триллер, комедия, криминал
Продолжительность: 01:21:59
Перевод: Авторский (одноголосый) [К.Филонов] *VOXSOLUS*
Субтитры: отсутствуют

Режиссеры: Жан-Баптист Андреа / Jean-Baptiste Andrea

В ролях: Дэвид Швиммер/David Schwimmer, Саймон Пегг/Simon Pegg, Элис Ив/Alice Eve, Джон Полито/Jon Polito, Наташа МакЭлхоун/Natascha McElhone, Мими Роджерс/Mimi Rogers, Билли Эшер/Billy Asher, Джулиан Гловер/Julian Glover, Сара Эдмондсон/Sarah Edmondson и др.

Описание: Что может быть страшнее для Чарли Вуда — школьного учителя, чем с треском вылететь с «любимой» работы и попрощаться с бандой малолетних спиногрызов? Только сидеть на шее у своей жены — копа, превратиться в домохозяйку и няню в одном лице. Или просиживать штаны в пыльной конторе до конца жизни…
Отличная перспектива! Но судьба все же слабо улыбнулась патологическому неудачнику. Наверное, она просто хотела над ним посмеяться. Жаль, что он сразу этого не понял…



Качество: BDRip с [Blu-Ray Remux/1080p]
Формат: AVI
Видео кодек: XviD
Аудио кодек: MP3
Видео: 720x304 (2.37:1), 25.015 fps, XviD build 50 ~2059 kbps avg, 0.38 bit/pixel
Аудио: 44.100 kHz, MPEG Layer 3, 2 ch, ~128 kbps avg

Цитата:

Авторская дорога взята из DVDRip-а Neki$h с тру,
Видеоряд от urban92 от туда же
General
Complete name : E:\INTERNET\Big Nothing.2006.BDRip.[AVO] (K.FILONOV).avi
Format : AVI
Format/Info : Audio Video Interleave
File size : 1.26 GiB
Duration : 1h 21mn
Overall bit rate : 2 197 Kbps
Writing application : VirtualDubMod 1.5.10.3 (build 2550/release)
Writing library : VirtualDubMod build 2550/release

Video
ID : 0
Format : MPEG-4 Visual
Format profile : Advanced Simple@L5
Format settings, BVOP : 1
Format settings, QPel : No
Format settings, GMC : No warppoints
Format settings, Matrix : Default (MPEG)
Codec ID : XVID
Codec ID/Hint : XviD
Duration : 1h 21mn
Bit rate : 2 060 Kbps
Width : 720 pixels
Height : 304 pixels
Display aspect ratio : 2.35:1
Frame rate : 25.015 fps
Original frame rate : 23.976 fps
Color space : YUV
Chroma subsampling : 4:2:0
Bit depth : 8 bits
Scan type : Progressive
Compression mode : Lossy
Bits/(Pixel*Frame) : 0.376
Stream size : 1.18 GiB (94%)
Writing library : XviD 1.2.1 (UTC 2008-12-04)

Audio
ID : 1
Format : MPEG Audio
Format version : Version 1
Format profile : Layer 3
Mode : Joint stereo
Mode extension : MS Stereo
Codec ID : 55
Codec ID/Hint : MP3
Duration : 1h 21mn
Bit rate mode : Constant
Bit rate : 128 Kbps
Channel(s) : 2 channels
Sampling rate : 44.1 KHz
Compression mode : Lossy
Stream size : 74.9 MiB (6%)
Alignment : Aligned on interleaves
Interleave, duration : 40 ms (1.00 video frame)
Interleave, preload duration : 522 ms



Скачать Полный.облом.Big.Nothing.(Жан-Баптист.Андреа.Jean-Baptiste.Andrea).[2006.г.триллер.комедия.криминал.BDRip].[AVO].(К.Филонов).torrent без регистрации
Золото ЗОЛОТАЯ РАЗДАЧА! СКАЧАННОЕ НЕ ЗАСЧИТЫВАЕТСЯ! Золото
Дата: Зарегистрирован   [ Тип: внутренний ] Как тут cкачать?
MAGNET ссылка
MAGNET ссылка


Скачать .torrent

13 KB

Статус: проверено DHT
Скачан: торрент - 110 раз, раздача полностью - 15 раз
Размер: 1,26 GB
Оценка:  5 (Голосов: 1)
Поблагодарили: 1
Поделиться ссылкой на эту раздачу с друзьями:
В контактеFacebookОдноклассникиTwitterLivejournalМой МирLiveinternet
 

 
Показать сообщения:    


Вы не можете начинать темы
Вы не можете отвечать на сообщения
Вы не можете редактировать свои сообщения
Вы не можете удалять свои сообщения
Вы не можете голосовать в опросах
Вы не можете прикреплять файлы к сообщениям
Вы можете скачивать файлы