Loading...
Error

Скачать Библейские сказания / Книга Бытия. Сотворение мира / Genesi: La creazione e il diluvio (Эрманно Ольми) [1994, фэнтези, драма, приключения, история, религия, DVDRip-AVC] [MVO] торрент без регистрации

 
Статистика раздачи
Размер:  1,61 GB   |    Скачан:  160 раз
Сидов:  1  [  0 KB/s  ]  
 
Автор Сообщение

Marsianka

[] 

Информация о фильме
Название: Библейские сказания / Книга Бытия. Сотворение мира
Оригинальное название: Genesi: La creazione e il diluvio
Год выхода: 1994
Жанр: фэнтези, драма, приключения, история, религия
Режиссер: Эрманно Ольми
В ролях: Аннаби Абдельалил, Омеро Антонутти, Сабир Азиз, Б. Хаддан Мохамед, Пол Скофилд, Haddou Zoubida

О фильме: «Фильм 1 из 13 “Библейской коллекции” »
История сотворения мира, поведанная весьма пожилым бедуином, скитающимся вместе с племенем по живописным местностям, пересекая целебные оазисы, завораживающие пустыни, колоритные развалины и бесконечные караванные пути.

Словоохотливый старец, подобно сказочной Шахерезаде, еженощно рассказывает благодарным слушателям космогонические истории божественного промысла, а так же поучительные предания о деяниях патриархов. Архаичная жизнь кочующего народа отсылает зрителей к ветхозаветных временах, придавая особую достоверность древнейшим сказаниям.




Страна: Италия, Германия
Студия: Beta Film, Lube Productions, RAI Rete 1 TV, Lux Vide S.p.a.
Продолжительность: 01:33:00
Перевод: Профессиональный (многоголосый, закадровый)

Файл
Кодек: h.264 (MKV)
Качество: DVDRip-AVC
Видео: AVC, 1024 x 768, ~2053 kbps
Звук: Русский Dolby Digital 2.0; 192Kbps / Английский Dolby Digital 2.0; 192Kbps
Субтитры: нет Продолжение следует…


Семпл
Общее
Уникальный идентификатор : 170345354995692804320611624831180894491 (0x8027526F12D420789BA7BDA2F5D8711B)
Полное имя : G: Библейские сказания Библейская коллекция The Bible (1994-2002-2009-2010) Полное коллекционное собраниеБиблейские сказания9. Книга бытия. Сотворение МираНовая папка�1. Genesi La creazione e il diluvio (1994) DVDRip-AVC.mkv
Формат : Matroska
Версия формата : Version 4 / Version 2
Размер файла : 1,61 Гбайт
Продолжительность : 1 ч. 32 м.
Общий поток : 2486 Кбит/сек
Дата кодирования : UTC 2014-07-17 09:18:18
Программа кодирования : mkvmerge v6.9.1 ('Blue Panther') 64bit built on Apr 18 2014 18:23:38
Библиотека кодирования : libebml v1.3.0 + libmatroska v1.4.1

Видео
Идентификатор : 1
Формат : AVC
Формат/Информация : Advanced Video Codec
Профиль формата : Main@L4.1
Параметр CABAC формата : Да
Параметр ReFrames формата : 1 кадр
Идентификатор кодека : V_MPEG4/ISO/AVC
Продолжительность : 1 ч. 32 м.
Битрейт : 2053 Кбит/сек
Ширина : 1024 пикселя
Высота : 768 пикселей
Соотношение сторон : 4:3
Режим частоты кадров : Постоянный
Частота кадров : 25,000 кадров/сек
Цветовое пространство : YUV
Субдискретизация насыщенности : 4:2:0
Битовая глубина : 8 бит
Тип развёртки : Прогрессивная
Бит/(Пиксели*Кадры) : 0.104
Размер потока : 1,33 Гбайт (83%)
Default : Да
Forced : Нет

Аудио #1
Идентификатор : 2
Формат : AC-3
Формат/Информация : Audio Coding 3
Расширение режима : CM (complete main)
Параметр Endianness формата : Big
Идентификатор кодека : A_AC3
Продолжительность : 1 ч. 32 м.
Вид битрейта : Постоянный
Битрейт : 192 Кбит/сек
Каналы : 2 канала
Расположение каналов : Front: L R
Частота : 48,0 КГц
Битовая глубина : 16 бит
Метод сжатия : С потерями
Размер потока : 127 Мбайт (8%)
Default : Да
Forced : Нет

Аудио #2
Идентификатор : 3
Формат : AC-3
Формат/Информация : Audio Coding 3
Расширение режима : CM (complete main)
Параметр Endianness формата : Big
Идентификатор кодека : A_AC3
Продолжительность : 1 ч. 32 м.
Вид битрейта : Постоянный
Битрейт : 192 Кбит/сек
Каналы : 2 канала
Расположение каналов : Front: L R
Частота : 48,0 КГц
Битовая глубина : 16 бит
Метод сжатия : С потерями
Размер потока : 127 Мбайт (8%)
Default : Нет
Forced : Нет



Скачать Библейские.сказания.Книга.Бытия.Сотворение.мира.Genesi.La.creazione.e.il.diluvio.(Эрманно.Ольми).[1994.фэнтези.драма.приключения.история.религия.DVDRip-AVC].[MVO].torrent без регистрации
Золото ЗОЛОТАЯ РАЗДАЧА! СКАЧАННОЕ НЕ ЗАСЧИТЫВАЕТСЯ! Золото
Дата: Зарегистрирован   [ Тип: внутренний ] Как тут cкачать?
MAGNET ссылка
MAGNET ссылка


Скачать .torrent

17 KB

Статус: проверено DHT
Скачан: торрент - 160 раз, раздача полностью - 23 раз
Размер: 1,61 GB
Оценка:  - (Голосов: 0)
Поблагодарили: 2
Поделиться ссылкой на эту раздачу с друзьями:
В контактеFacebookОдноклассникиTwitterLivejournalМой МирLiveinternet
 

 
Показать сообщения:    


Вы не можете начинать темы
Вы не можете отвечать на сообщения
Вы не можете редактировать свои сообщения
Вы не можете удалять свои сообщения
Вы не можете голосовать в опросах
Вы не можете прикреплять файлы к сообщениям
Вы можете скачивать файлы