Loading...
Error

Скачать Библейские сказания / Авраам: Хранитель Веры / Abraham [01-02 из 02] (Джозеф Сарджент) [1993, драма, приключения, биография, история, религия, DVDRip-AVC] [MVO] торрент без регистрации

 
Статистика раздачи
Размер:  3,15 GB   |    Скачан:  172 раза

Полного источника не было: 22 минуты

 
Автор Сообщение

Marsianka

[] 

Информация о фильме
Название: Библейские сказания / Авраам: Хранитель Веры
Оригинальное название: Abraham
Год выхода: 1993
Жанр: драма, приключения, биография, история, религия
Режиссер: Джозеф Сарджент
В ролях: Ричард Харрис, Барбара Херши, Максимилиан Шелл, Витторио Гассман, Каролина Рози, Андреа Продан…

О фильме: «Фильм 3 из 13 “Библейской коллекции”. Величайшие испытания в поиске и обретении Земли обетованной»
Авраам — первый из трех великих библейских патриархов после Потопа, родоначальник многих народов. Его вера была столь глубока, что он готов был принести в жертву собственного сына. Увидев подобное самоотречение, Господь благословил Авраама, пообещав сделать его потомству многие блага на земле.

В этом эпическом произведении о жизни великого пророка рассказывается о великом переселении его народа, происшедшего по велению Господа, явившегося Аврааму и призвавшего его. Путь Авраама пролегал через земли Ханаана и Египта и был полон тяжких испытаний, но Господь всякий раз указывал ему дорогу, защищая от врагов и укрепляя веру.




Страна: Германия, Италия, США, Чехия, Франция
Студия: Beta Film, Lube, Quinta Communications, Lux Vide S.p.a.
Продолжительность: 03:01:12
Перевод: Профессиональный (многоголосый, закадровый)

Файл
Кодек: h.264 (MKV)
Качество: DVDRip-AVC
Видео: AVC, 1024 x 768, ~2054 kbps
Звук: Русский: Dolby Digital 2.0; 192Kbps / Английский: Dolby Digital 2.0; 192Kbps
Субтитры: нет

Семпл
Общее
Уникальный идентификатор : 201488112539850486236159709646000108682 (0x979532ED9762E6E884FFACAFAAFA348A)
Полное имя : G: Библейские сказания Библейская коллекция The Bible (1994-2002-2009-2010) Полное коллекционное собраниеБиблейские сказания12. Авраам. Хранитель верыНовая папкаНовая папка3. Abraham.1994.DVDRip-AVC.mkv
Формат : Matroska
Версия формата : Version 4 / Version 2
Размер файла : 3,15 Гбайт
Продолжительность : 3 ч. 1 м.
Общий поток : 2488 Кбит/сек
Дата кодирования : UTC 2014-07-17 19:44:15
Программа кодирования : mkvmerge v6.9.1 ('Blue Panther') 64bit built on Apr 18 2014 18:23:38
Библиотека кодирования : libebml v1.3.0 + libmatroska v1.4.1

Видео
Идентификатор : 1
Формат : AVC
Формат/Информация : Advanced Video Codec
Профиль формата : Main@L4.1
Параметр CABAC формата : Да
Параметр ReFrames формата : 1 кадр
Идентификатор кодека : V_MPEG4/ISO/AVC
Продолжительность : 3 ч. 1 м.
Битрейт : 2054 Кбит/сек
Ширина : 1024 пикселя
Высота : 768 пикселей
Соотношение сторон : 4:3
Режим частоты кадров : Постоянный
Частота кадров : 25,000 кадров/сек
Цветовое пространство : YUV
Субдискретизация насыщенности : 4:2:0
Битовая глубина : 8 бит
Тип развёртки : Прогрессивная
Бит/(Пиксели*Кадры) : 0.104
Размер потока : 2,60 Гбайт (83%)
Default : Да
Forced : Нет

Аудио #1
Идентификатор : 2
Формат : AC-3
Формат/Информация : Audio Coding 3
Расширение режима : CM (complete main)
Параметр Endianness формата : Big
Идентификатор кодека : A_AC3
Продолжительность : 3 ч. 1 м.
Вид битрейта : Постоянный
Битрейт : 192 Кбит/сек
Каналы : 2 канала
Расположение каналов : Front: L R
Частота : 48,0 КГц
Битовая глубина : 16 бит
Метод сжатия : С потерями
Размер потока : 249 Мбайт (8%)
Default : Да
Forced : Нет

Аудио #2
Идентификатор : 3
Формат : AC-3
Формат/Информация : Audio Coding 3
Расширение режима : CM (complete main)
Параметр Endianness формата : Big
Идентификатор кодека : A_AC3
Продолжительность : 3 ч. 1 м.
Вид битрейта : Постоянный
Битрейт : 192 Кбит/сек
Каналы : 2 канала
Расположение каналов : Front: L R
Частота : 48,0 КГц
Битовая глубина : 16 бит
Метод сжатия : С потерями
Размер потока : 249 Мбайт (8%)
Default : Нет
Forced : Нет



Скачать Библейские.сказания.Авраам.Хранитель.Веры.Abraham.[01-02.из.02].(Джозеф.Сарджент).[1993.драма.приключения.биография.история.религия.DVDRip-AVC].[MVO].torrent без регистрации
Золото ЗОЛОТАЯ РАЗДАЧА! СКАЧАННОЕ НЕ ЗАСЧИТЫВАЕТСЯ! Золото
Дата: Зарегистрирован   [ Тип: внутренний ] Как тут cкачать?
MAGNET ссылка
MAGNET ссылка


Скачать .torrent

17 KB

Статус: проверено DHT
Скачан: торрент - 172 раз, раздача полностью - 88 раз
Размер: 3,15 GB
Оценка:  - (Голосов: 0)
Поблагодарили: 1
Поделиться ссылкой на эту раздачу с друзьями:
В контактеFacebookОдноклассникиTwitterLivejournalМой МирLiveinternet
 

 
Показать сообщения:    


Вы не можете начинать темы
Вы не можете отвечать на сообщения
Вы не можете редактировать свои сообщения
Вы не можете удалять свои сообщения
Вы не можете голосовать в опросах
Вы не можете прикреплять файлы к сообщениям
Вы можете скачивать файлы