Loading...
Error

Скачать Библейские сказания: Эсфирь / The Bible: Esther (Раффаэле Мертес) [1999, драма, биография, история, DVDRip] [MVO] торрент без регистрации

 
Статистика раздачи
Размер:  1,46 GB   |    Скачан:  107 раз
Сидов:  1  [  0 KB/s  ]  
 
Автор Сообщение

Marsianka

[] 

Информация о фильме
Название: Библейские сказания: Эсфирь
Оригинальное название: The Bible: Esther
Год выхода: 1999
Жанр: драма, биография, история
Режиссер: Раффаэле Мертес / Raffaele Mertes
В ролях: Луис Ломбард, Ф. Мюррэй Абрахам, Юрген Прохнов, Томас Кречман, Фрэнк Бэйкер, Джон Холлис, Умберто Орсини, Фил Дэвис, Кристофер Эттридж, Наташа Уильямс, Орнелла Мути, Джереми Циммерман

О фильме:
После разрушения Иерусалима, примерно за 6 веков до Рождества Христова, иудеи были взяты в плен Вавилоном. Но через 60 лет вавилонские земли были завоёваны персидской армией и присоединены к новой огромной империи. Указом царя Кира все плененные народы могли свободно вернуться на свои родные земли. Не все иудеи вернулись в Иудею, многие решили остаться в персидской империи. Эту удивительную историю спасения от неминуемой гибели целого народа, можно найти на страницах Библии. В те далекие времена Израиль был в рабстве у Мидо-Персидского царя Артаксеркса. Отвергнув своенравную царицу Астин, он решил выбрать новую супругу из всех девушек своей империи. Неожиданно для всех вместо своей непокорной жены Астин берет в жены еврейскую девушку Эсфирь, двоюродную сестру Мордехая. В картине реалистично воссоздана жизнь евреев в древней Персии, библейские персонажи ярко представлены известными актерами, особое настроение создает проникновенная музыка Карло Силиотто. В этом фильме показано, что такое власть и насколько она зависит от тех людей, которые окружают тебя. Посмотри на людей, которые влияют на тебя и твой выбор...




Страна: Германия, Италия, США
Продолжительность: 01:27:09
Перевод: Профессиональный (многоголосый, закадровый)

Файл
Кодек: XviD
Качество: DVDRip
Видео: 720x544 (1.32:1), 25 fps, XviD build 50 ~2202 kbps avg, 0.22 bit/pixel
Звук: 48 kHz, AC3 Dolby Digital, 2/0 (L,R) ch, ~192 kbps
General
DownloadsThe_Bible_Esther_1999.DVDRip.avi
Format : AVI
Format/Info : Audio Video Interleave
File size : 1.46 GiB
Duration : 1h 27mn
Overall bit rate : 2 404 Kbps
Writing application : VirtualDubMod 1.5.10.3 | http://www.virtualdub-fr.org || (build 2550/release)
Writing library : VirtualDubMod build 2550/release

Video
ID : 0
Format : MPEG-4 Visual
Format profile : Advanced Simple@L5
Format settings, BVOP : 1
Format settings, QPel : No
Format settings, GMC : No warppoints
Format settings, Matrix : Default (H.263)
Codec ID : XVID
Codec ID/Hint : XviD
Duration : 1h 27mn
Bit rate : 2 202 Kbps
Width : 720 pixels
Height : 544 pixels
Display aspect ratio : 4:3
Frame rate : 25.000 fps
Color space : YUV
Chroma subsampling : 4:2:0
Bit depth : 8 bits
Scan type : Progressive
Compression mode : Lossy
Bits/(Pixel*Frame) : 0.225
Stream size : 1.34 GiB (92%)
Writing library : XviD 1.2.1 (UTC 2008-12-04)

Audio
ID : 1
Format : AC-3
Format/Info : Audio Coding 3
Mode extension : CM (complete main)
Format settings, Endianness : Big
Codec ID : 2000
Duration : 1h 27mn
Bit rate mode : Constant
Bit rate : 192 Kbps
Channel(s) : 2 channels
Channel positions : Front: L R
Sampling rate : 48.0 KHz
Bit depth : 16 bits
Compression mode : Lossy
Stream size : 120 MiB (8%)
Alignment : Split accross interleaves
Interleave, duration : 40 ms (1.00 video frame)
Interleave, preload duration : 500 ms
Релиз от:



Скачать Библейские.сказания.Эсфирь.The.Bible.Esther.(Раффаэле.Мертес).[1999.драма.биография.история.DVDRip].[MVO].torrent без регистрации
Золото ЗОЛОТАЯ РАЗДАЧА! СКАЧАННОЕ НЕ ЗАСЧИТЫВАЕТСЯ! Золото
Дата: Зарегистрирован   [ Тип: внутренний ] Как тут cкачать?
MAGNET ссылка
MAGNET ссылка


Скачать .torrent

15 KB

Статус: проверено DHT
Скачан: торрент - 107 раз, раздача полностью - 14 раз
Размер: 1,46 GB
Оценка:  - (Голосов: 0)
Поблагодарили: 1
Поделиться ссылкой на эту раздачу с друзьями:
В контактеFacebookОдноклассникиTwitterLivejournalМой МирLiveinternet
 

 
Показать сообщения:    


Вы не можете начинать темы
Вы не можете отвечать на сообщения
Вы не можете редактировать свои сообщения
Вы не можете удалять свои сообщения
Вы не можете голосовать в опросах
Вы не можете прикреплять файлы к сообщениям
Вы можете скачивать файлы