Loading...
Error

Скачать Третье чудо / The Third Miracle (Агнешка Холланд / Agnieszka Holland) [1999, драма, DVDRip] [AVO] (Юрий Сербин) торрент без регистрации

 
Статистика раздачи
Размер:  1,37 GB   |    Скачан:  104 раза
Сидов:  1  [  0 KB/s  ]  
 
Автор Сообщение

leon030982

[] 

Третье чудо / The Third Miracle


Год выпуска: 1999
Страна: США
Жанр: драма
Продолжительность: 01:58:12
Перевод: Авторский (одноголосый, закадровый) [Юрий Сербин]
Cубтитры: нет

Режиссер: Агнешка Холланд / Agnieszka Holland

В ролях: Эд Харрис, Энн Хеч, Армин Мюллер-Шталь, Чарльз Хейд, Майкл Рисполи, Барбара Зукова

Описание: Фрэнк Шор давно потерял веру и отрекся от Бога, хотя все еще продолжает быть священником. Прозванный в религиозных кругах «убийцей чудес», он разоблачил многих фальшивых пророков и чудотворцев.
Но дело о таинственной мраморной статуе во дворе одной из церквей Чикаго, глаза которой источают кровавые исцеляющие слезы, оказалось не совсем обычным.
Фрэнк думал, что в современном мире больше нет места святым, а дьяволу уже не нужны людские души. И только когда ему пришлось прикоснуться к запретным тайнам, многие века хранимым церковью, он поверил, что на земле еще случаются истинные чудеса…



Качество: DVDRip
Формат: AVI
Видео кодек: XviD
Аудио кодек: AC3
Видео: 720x400 (1.80:1), 23.976 fps, XviD Final 1.0.3 (build 37) ~1457 kbps avg, 0.21 bit/pixel
Аудио: 48 kHz, AC3 Dolby Digital, 2/0 (L,R) ch, ~192.00 kbps avg
General
Complete name : E:\INTERNET\Третье чудо.avi
Format : AVI
Format/Info : Audio Video Interleave
File size : 1.37 GiB
Duration : 1h 58mn
Overall bit rate : 1 658 Kbps
Writing application : VirtualDubMod 1.5.10.2 (build 2540/release)
Writing library : VirtualDubMod build 2540/release

Video
ID : 0
Format : MPEG-4 Visual
Codec ID : XVID
Codec ID/Hint : XviD
Duration : 1h 58mn
Bit rate : 567 Mbps
Width : 720 pixels
Height : 400 pixels
Display aspect ratio : 16:9
Frame rate : 23.976 fps
Color space : YUV
Chroma subsampling : 4:2:0
Compression mode : Lossy
Bits/(Pixel*Frame) : 82.121
Stream size : 107 GiB

Audio
ID : 1
Format : AC-3
Format/Info : Audio Coding 3
Codec ID : 2000
Duration : 1h 58mn
Bit rate mode : Constant
Bit rate : 192 Kbps
Channel(s) : 2 channels
Sampling rate : 48.0 KHz
Compression mode : Lossy
Stream size : 85.1 GiB
Alignment : Split accross interleaves
Interleave, duration : 42 ms (1.00 video frame)
Interleave, preload duration : 500 ms
Language : English



Скачать Третье.чудо.The.Third.Miracle.(Агнешка.Холланд.Agnieszka.Holland).[1999.драма.DVDRip].[AVO].(Юрий.Сербин).torrent без регистрации
Золото ЗОЛОТАЯ РАЗДАЧА! СКАЧАННОЕ НЕ ЗАСЧИТЫВАЕТСЯ! Золото
Дата: Зарегистрирован   [ Тип: внутренний ] Как тут cкачать?
MAGNET ссылка
MAGNET ссылка


Скачать .torrent

14 KB

Статус: проверено DHT
Скачан: торрент - 104 раз, раздача полностью - 4 раз
Размер: 1,37 GB
Оценка:  - (Голосов: 0)
Поблагодарили: 1
Поделиться ссылкой на эту раздачу с друзьями:
В контактеFacebookОдноклассникиTwitterLivejournalМой МирLiveinternet
 

 
Показать сообщения:    


Вы не можете начинать темы
Вы не можете отвечать на сообщения
Вы не можете редактировать свои сообщения
Вы не можете удалять свои сообщения
Вы не можете голосовать в опросах
Вы не можете прикреплять файлы к сообщениям
Вы можете скачивать файлы