Loading...
Error

Скачать Незамужняя женщина / An Unmarried Woman (Пол Мазурски) [1978, драма, мелодрама, DVDRip-AVC] [MVO]+[Sub] торрент без регистрации

 
Статистика раздачи
Размер:  2,34 GB   |    Скачан:  101 раз
Сидов:  1  [  0 KB/s  ]  
 
Автор Сообщение

Marsianka

[] 

Информация о фильме
Название: Незамужняя женщина
Оригинальное название: An Unmarried Woman
Год выхода: 1978
Жанр: драма, мелодрама
Режиссер: Пол Мазурски / Paul Mazursky
В ролях: Джилл Клэйберг /Jill Clayburgh/, Алан Бэйтс /Alan Bates/, Майкл Мерфи /Michael Murphy/, Клифф Гормэн /Cliff Gorman/, Пэт Куинн /Pat Quinn/, Келли Бишоп /Kelly Bishop/, Лиза Лукас /Lisa Lucas/, Линда Дж. Миллер /Linda G. Miller/, Эндрю Данкан /Andrew Duncan/, Дэниэл Селтцер /Daniel Seltzer/

О фильме:
Молодая женщина (Клэйберг) учится жить заново, после того как ее муженек (Мерфи) бросает ее ради другой. Действие происходит в Нью-Йорке, который режиссер Мазурски хорошо знает. Обретенная свобода становится гнетущей. Как восстановить свои отношения с окружающим миром, найти в себе силы выстоять, обрести душевное равновесие? В фильме создан групповой портрет разведенных женщин (режиссер опросил свыше двухсот человек), но зритель переживает за героиню фильма, страдает вместе с нею. Фильм в 70-х годах был знаменем феминистского движения, хотя сейчас эти идеи могут показаться устаревшими до смешного.



Страна: США
Студия: 20th Century Fox Film Corporation
Продолжительность: 02:04:12.612
Перевод: Профессиональный (многоголосый закадровый) 1 канал

Файл
Кодек: h.264
Качество: DVDRip-AVC
Видео: 704x448 (1.85:1) @ 828x448, 23.976 fps, AVC, ~2369 Kbps, 0.313 bits/pixel
Звук:
Русский, 48.0 KHz, AC3, 1 ch, 128 Kbps
Английский, 48.0 KHz, AC3, 2 ch, 192 Kbps (двойное моно)
Субтитры: Английские, VobSub
Общее
Уникальный идентификатор : 178545585311862155952847464199053325678 (0x8652A100D658FFB9809356EF6D2F356E)
Полное имя : H:FilmsNezamuzhnaya_zhenschina.1978.DVDRip-AVC.mkv
Формат : Matroska
Версия формата : Version 4 / Version 2
Размер файла : 2,34 Гбайт
Продолжительность : 2 ч. 4 м.
Общий поток : 2693 Кбит/сек
Дата кодирования : UTC 2014-07-20 18:25:34
Программа кодирования : mkvmerge v7.0.0 ('Where We Going') 64bit built on Jun 9 2014 15:16:27
Библиотека кодирования : libebml v1.3.0 + libmatroska v1.4.1
DURATION : 02:01:15.385000000
NUMBER_OF_FRAMES : 1617
NUMBER_OF_BYTES : 2011703
_STATISTICS_WRITING_APP : mkvmerge v7.0.0 ('Where We Going') 64bit built on Jun 9 2014 15:16:27
_STATISTICS_WRITING_DATE_UTC : 2014-07-20 18:25:34
_STATISTICS_TAGS : BPS DURATION NUMBER_OF_FRAMES NUMBER_OF_BYTES

Видео
Идентификатор : 1
Формат : AVC
Формат/Информация : Advanced Video Codec
Профиль формата : High@L4.1
Параметр CABAC формата : Да
Параметр ReFrames формата : 16 кадров
Идентификатор кодека : V_MPEG4/ISO/AVC
Продолжительность : 2 ч. 4 м.
Битрейт : 2369 Кбит/сек
Ширина : 704 пикселя
Высота : 448 пикселей
Соотношение сторон : 1,85:1
Соотношение сторон в оригинале : 1,85:1
Режим частоты кадров : Постоянный
Частота кадров : 23,976 кадра/сек
Цветовое пространство : YUV
Субдискретизация насыщенности : 4:2:0
Битовая глубина : 8 бит
Тип развёртки : Прогрессивная
Бит/(Пиксели*Кадры) : 0.313
Размер потока : 2,01 Гбайт (86%)
Библиотека кодирования : x264 core 142 r2431 ac76440
Настройки программы : cabac=1 / ref=16 / deblock=1:0:0 / analyse=0x3:0x133 / me=umh / subme=10 / psy=1 / psy_rd=1.10:0.10 / mixed_ref=1 / me_range=32 / chroma_me=1 / trellis=2 / 8x8dct=1 / cqm=0 / deadzone=21,11 / fast_pskip=0 / chroma_qp_offset=-3 / threads=8 / lookahead_threads=2 / sliced_threads=0 / nr=0 / decimate=0 / interlaced=0 / bluray_compat=0 / constrained_intra=0 / bframes=12 / b_pyramid=2 / b_adapt=2 / b_bias=0 / direct=3 / weightb=1 / open_gop=0 / weightp=2 / keyint=240 / keyint_min=23 / scenecut=60 / intra_refresh=0 / rc_lookahead=60 / rc=2pass / mbtree=0 / bitrate=2369 / ratetol=1.0 / qcomp=0.60 / qpmin=0 / qpmax=69 / qpstep=4 / cplxblur=20.0 / qblur=0.5 / vbv_maxrate=50000 / vbv_bufsize=62500 / nal_hrd=none / filler=0 / ip_ratio=1.40 / pb_ratio=1.30 / aq=1:1.00
Default : Нет
Forced : Нет
Коэффициенты матрицы : BT.601
DURATION : 02:04:12.612000000
NUMBER_OF_FRAMES : 178684
NUMBER_OF_BYTES : 2206835889
_STATISTICS_WRITING_APP : mkvmerge v7.0.0 ('Where We Going') 64bit built on Jun 9 2014 15:16:27
_STATISTICS_WRITING_DATE_UTC : 2014-07-20 18:25:34
_STATISTICS_TAGS : BPS DURATION NUMBER_OF_FRAMES NUMBER_OF_BYTES

Аудио #1
Идентификатор : 2
Формат : AC-3
Формат/Информация : Audio Coding 3
Расширение режима : CM (complete main)
Параметр Endianness формата : Big
Идентификатор кодека : A_AC3
Продолжительность : 2 ч. 4 м.
Вид битрейта : Постоянный
Битрейт : 128 Кбит/сек
Каналы : 1 канал
Расположение каналов : Front: C
Частота : 48,0 КГц
Битовая глубина : 16 бит
Метод сжатия : С потерями
Размер потока : 114 Мбайт (5%)
Язык : Russian
Default : Да
Forced : Нет

Аудио #2
Идентификатор : 3
Формат : AC-3
Формат/Информация : Audio Coding 3
Расширение режима : CM (complete main)
Параметр Endianness формата : Big
Идентификатор кодека : A_AC3
Продолжительность : 2 ч. 4 м.
Вид битрейта : Постоянный
Битрейт : 192 Кбит/сек
Каналы : 2 канала
Расположение каналов : Front: L R
Частота : 48,0 КГц
Битовая глубина : 16 бит
Метод сжатия : С потерями
Размер потока : 171 Мбайт (7%)
Язык : English
Default : Нет
Forced : Нет

Текст
Идентификатор : 4
Формат : VobSub
Режим смешивания : zlib
Идентификатор кодека : S_VOBSUB
Идентификатор кодека/Информация : The same subtitle format used on DVDs
Язык : English
Default : Нет
Forced : Нет

Меню
00:00:00.000 : en:Chapter 01
00:03:50.167 : en:Chapter 02
00:06:42.334 : en:Chapter 03
00:11:35.668 : en:Chapter 04
00:18:11.502 : en:Chapter 05
00:20:49.336 : en:Chapter 06
00:23:43.670 : en:Chapter 07
00:28:49.004 : en:Chapter 08
00:31:37.004 : en:Chapter 09
00:36:09.838 : en:Chapter 10
00:38:53.839 : en:Chapter 11
00:42:41.373 : en:Chapter 12
00:45:47.840 : en:Chapter 13
00:48:58.040 : en:Chapter 14
00:52:47.374 : en:Chapter 15
00:56:37.407 : en:Chapter 16
01:00:00.075 : en:Chapter 17
01:07:07.075 : en:Chapter 18
01:16:50.409 : en:Chapter 19
01:18:37.409 : en:Chapter 20
01:22:08.442 : en:Chapter 21
01:27:08.910 : en:Chapter 22
01:33:39.911 : en:Chapter 23
01:41:53.745 : en:Chapter 24
01:47:18.945 : en:Chapter 25
01:49:44.279 : en:Chapter 26
01:57:08.113 : en:Chapter 27
01:59:36.280 : en:Chapter 28
02:04:05.147 : en:Chapter 29
Исходник видео R1 Retail XX Century Fox Релиз от: Temperest



Скачать Незамужняя.женщина.An.Unmarried.Woman.(Пол.Мазурски).[1978.драма.мелодрама.DVDRip-AVC].[MVO]+[Sub].torrent без регистрации
Золото ЗОЛОТАЯ РАЗДАЧА! СКАЧАННОЕ НЕ ЗАСЧИТЫВАЕТСЯ! Золото
Дата: Зарегистрирован   [ Тип: внутренний ] Как тут cкачать?
MAGNET ссылка
MAGNET ссылка


Скачать .torrent

12 KB

Статус: проверено DHT
Скачан: торрент - 101 раз, раздача полностью - 1 раз
Размер: 2,34 GB
Оценка:  - (Голосов: 0)
Поблагодарили: 2
Поделиться ссылкой на эту раздачу с друзьями:
В контактеFacebookОдноклассникиTwitterLivejournalМой МирLiveinternet
 

 
Показать сообщения:    


Вы не можете начинать темы
Вы не можете отвечать на сообщения
Вы не можете редактировать свои сообщения
Вы не можете удалять свои сообщения
Вы не можете голосовать в опросах
Вы не можете прикреплять файлы к сообщениям
Вы можете скачивать файлы