Loading...
Error

Скачать Предупредительный удар / Termination man (Фред Галло) [1998, боевик, DVDRip] [VO (Денис Строев)] торрент без регистрации

 
Статистика раздачи
Размер:  1,46 GB   |    Скачан:  97 раз
Сидов:  1  [  0 KB/s  ]  
 
Автор Сообщение

Marsianka

[] 

Информация о фильме
Название: Предупредительный удар
Оригинальное название: Termination man
Год выхода: 1998
Жанр: боевик
Режиссер: Фред Галло / Fred Gallo
В ролях: Стив Рейлсбэк, Джеймс Фарентино, Афина Мэсси, Эб Лоттимер, Владимир Кулешов, Яков Луи, Ирина Малышева, Руби Зак, Фред Галло, Руслан Скрипник

О фильме:
Известный сербский террорист Юрдович изобретает новое адское оружие: сильнейший нервный газ, способный проникать в организм человека даже сквозь самые современные средства химической защиты. Уничтожив с помощью газа отряд американских солдат, Юрдович угрожает в следующий раз поразить более масштабную цель, если все его требования не будут выполнены.
Начальник департамента безопасности Соединенных Штатов звонит одному из лучших секретных агентов Дилану Попу. Поп объединяется с коллегой — суперпрофессионалом Эдом Марксом и агентом Делилой Шейн, чтобы проникнуть в секретную резиденцию Юрдовича в Адриатическом море…




Страна: США
Продолжительность: 01:32:07
Перевод: Одноголосый [закадровый] [Денис Строев]

Файл
Кодек: XviD
Качество: DVDRip
Видео: 640x480 (1.33:1), 29.970 fps, XviD build 50 ~2070 kbps avg, 0.22 bit/pixel
Звук: 48 kHz, AC3 Dolby Digital, 2/0 (L,R) ch, ~192.00 kbps avg

Семпл
downloadTermination_man_1998.DVDRip.avi
Format : AVI
Format/Info : Audio Video Interleave
File size : 1.46 GiB
Duration : 1h 32mn
Overall bit rate : 2 274 Kbps
Writing application : VirtualDubMod 1.5.10.3 | http://www.virtualdub-fr.org || (build 2550/release)
Writing library : VirtualDubMod build 2550/release

Video
ID : 0
Format : MPEG-4 Visual
Format profile : Advanced Simple@L5
Format settings, BVOP : Yes
Format settings, QPel : No
Format settings, GMC : No warppoints
Format settings, Matrix : Default (H.263)
Codec ID : XVID
Codec ID/Hint : XviD
Duration : 1h 32mn
Bit rate : 2 070 Kbps
Width : 640 pixels
Height : 480 pixels
Display aspect ratio : 4:3
Frame rate : 29.970 fps
Color space : YUV
Chroma subsampling : 4:2:0
Bit depth : 8 bits
Scan type : Progressive
Compression mode : Lossy
Bits/(Pixel*Frame) : 0.225
Stream size : 1.33 GiB (91%)
Writing library : XviD 1.2.1 (UTC 2008-12-04)

Audio
ID : 1
Format : AC-3
Format/Info : Audio Coding 3
Mode extension : CM (complete main)
Format settings, Endianness : Big
Codec ID : 2000
Duration : 1h 32mn
Bit rate mode : Constant
Bit rate : 192 Kbps
Channel(s) : 2 channels
Channel positions : Front: L R
Sampling rate : 48.0 KHz
Bit depth : 16 bits
Compression mode : Lossy
Stream size : 127 MiB (8%)
Alignment : Split accross interleaves
Interleave, duration : 33 ms (1.00 video frame)
Interleave, preload duration : 500 ms
Релиз от:



Скачать Предупредительный.удар.Termination.man.(Фред.Галло).[1998.боевик.DVDRip].[VO.(Денис.Строев)].torrent без регистрации
Золото ЗОЛОТАЯ РАЗДАЧА! СКАЧАННОЕ НЕ ЗАСЧИТЫВАЕТСЯ! Золото
Дата: Зарегистрирован   [ Тип: внутренний ] Как тут cкачать?
MAGNET ссылка
MAGNET ссылка


Скачать .torrent

15 KB

Статус: проверено DHT
Скачан: торрент - 97 раз, раздача полностью - 5 раз
Размер: 1,46 GB
Оценка:  - (Голосов: 0)
Поблагодарили: 2
Поделиться ссылкой на эту раздачу с друзьями:
В контактеFacebookОдноклассникиTwitterLivejournalМой МирLiveinternet
 

 
Показать сообщения:    


Вы не можете начинать темы
Вы не можете отвечать на сообщения
Вы не можете редактировать свои сообщения
Вы не можете удалять свои сообщения
Вы не можете голосовать в опросах
Вы не можете прикреплять файлы к сообщениям
Вы можете скачивать файлы