Loading...
Error

Скачать Мыс страха / Cape Fear (Мартин Скорсезе) [1991, психологический триллер, драма, криминал, ремейк, экранизация, BDRip-AVC] [Dub]+[Sub]x2 торрент без регистрации

 
Статистика раздачи
Размер:  3,48 GB   |    Скачан:  118 раз
Сидов:  1  [  0 KB/s  ]  
 
Автор Сообщение

Marsianka

[] 

Информация о фильме
Название: Мыс страха
Оригинальное название: Cape Fear
Год выпуска: 1991
Жанр: психологический триллер, драма, криминал, ремейк, экранизация
Выпущено: США, Amblin Entertainment, Cappa Films, Tribeca Productions
Режиссер: Мартин Скорсезе
В ролях: Роберт Де Ниро, Ник Нолти, Джессика Лэнг, Джульетт Льюис, Джо Дон Бейкер, Роберт Митчэм, Грегори Пек, Мартин Болсам, Иллеана Дуглас, Фред Долтон Томпсон

О фильме: Матерый уголовник Макс Кейди выходит из тюрьмы, отсидев длительный срок за изнасилование. Его сердце переполнено злобой и ненавистью. Тогда, четырнадцать лет назад, его адвокатом на суде был Сэм Боуден. У него в руках была важная информация, которая, возможно, могла оправдать Макса. Но Сэм скрыл ее, и его клиент получил суровый приговор. Макс ничего не забыл, все эти годы он вынашивал план мести. И теперь намерен отыскать Боудена и преподать хороший урок ему, его жене и 15-летней дочери. Экранизация по произведению: Джон Д. МакДоналд.



Файл
Качество: BDRip (AVC) (Blu-ray Remux (1080p))
Видео: MPEG-4 AVC, 3000 Кбит/с, 1024x436, 23.976 кадр/с
Аудио: Русский, английский (AC3, 6 ch, 448 Кбит/с)
Продолжительность: 02:07:45
Перевод: Дублированный (BD CEE, Студия "Пифагор")
Субтитры: Русские, английские
General
Unique ID : 188180739565123163985569673865078748340 (0x8D924AC8EFA05978B77F9C2FA07BB4B4)
Complete name : C:Mys.straha.1991.x264.BDRip.(AVC).ExKinoRay.mkv
Format : Matroska
Format version : Version 2
File size : 3.48 GiB
Duration : 2h 7mn
Overall bit rate : 3 896 Kbps
Movie name : Mys.straha.1991.x264.BDRip.(AVC).ExKinoRay (Enigma-Vladislav71)
Encoded date : UTC 2011-11-08 16:47:30
Writing application : mkvmerge v4.0.0 ('The Stars were mine') сборка от Jun 6 2010 16:18:42
Writing library : libebml v1.0.0 + libmatroska v1.0.0

Video
ID : 1
Format : AVC
Format/Info : Advanced Video Codec
Format profile : High@L4.1
Format settings, CABAC : Yes
Format settings, ReFrames : 8 frames
Codec ID : V_MPEG4/ISO/AVC
Duration : 2h 7mn
Bit rate : 3 000 Kbps
Width : 1 024 pixels
Height : 436 pixels
Display aspect ratio : 2.35:1
Frame rate mode : Constant
Frame rate : 23.976 fps
Color space : YUV
Chroma subsampling : 4:2:0
Bit depth : 8 bits
Scan type : Progressive
Bits/(Pixel*Frame) : 0.280
Stream size : 2.61 GiB (75%)
Writing library : x264 core 114 r1924 08d04a4
Encoding settings : cabac=1 / ref=8 / deblock=1:-2:-2 / analyse=0x3:0x133 / me=umh / subme=10 / psy=1 / psy_rd=1.00:0.00 / mixed_ref=1 / me_range=48 / chroma_me=1 / trellis=2 / 8x8dct=1 / cqm=0 / deadzone=21,11 / fast_pskip=0 / chroma_qp_offset=-2 / threads=3 / sliced_threads=0 / nr=0 / decimate=1 / interlaced=0 / constrained_intra=0 / bframes=8 / b_pyramid=2 / b_adapt=2 / b_bias=0 / direct=3 / weightb=1 / open_gop=0 / weightp=2 / keyint=250 / keyint_min=23 / scenecut=40 / intra_refresh=0 / rc=2pass / mbtree=0 / bitrate=3000 / ratetol=1.0 / qcomp=0.60 / qpmin=10 / qpmax=51 / qpstep=4 / cplxblur=20.0 / qblur=0.5 / ip_ratio=1.40 / pb_ratio=1.30 / aq=2:1.00
Language : English
Default : No
Forced : No

Audio #1
ID : 2
Format : AC-3
Format/Info : Audio Coding 3
Mode extension : CM (complete main)
Format settings, Endianness : Big
Codec ID : A_AC3
Duration : 2h 7mn
Bit rate mode : Constant
Bit rate : 448 Kbps
Channel(s) : 6 channels
Channel positions : Front: L C R, Side: L R, LFE
Sampling rate : 48.0 KHz
Bit depth : 16 bits
Compression mode : Lossy
Stream size : 409 MiB (11%)
Language : Russian
Default : Yes
Forced : No

Audio #2
ID : 3
Format : AC-3
Format/Info : Audio Coding 3
Mode extension : CM (complete main)
Format settings, Endianness : Big
Codec ID : A_AC3
Duration : 2h 7mn
Bit rate mode : Constant
Bit rate : 448 Kbps
Channel(s) : 6 channels
Channel positions : Front: L C R, Side: L R, LFE
Sampling rate : 48.0 KHz
Bit depth : 16 bits
Compression mode : Lossy
Stream size : 409 MiB (11%)
Language : English
Default : No
Forced : No

Text #1
ID : 4
Format : UTF-8
Codec ID : S_TEXT/UTF8
Codec ID/Info : UTF-8 Plain Text
Language : Russian
Default : Yes
Forced : No

Text #2
ID : 5
Format : UTF-8
Codec ID : S_TEXT/UTF8
Codec ID/Info : UTF-8 Plain Text
Language : English
Default : No
Forced : No
Релиз от:

Авторы релиза:



Скачать Мыс.страха.Cape.Fear.(Мартин.Скорсезе).[1991.психологический.триллер.драма.криминал.ремейк.экранизация.BDRip-AVC].[Dub]+[Sub]x2.torrent без регистрации
Золото ЗОЛОТАЯ РАЗДАЧА! СКАЧАННОЕ НЕ ЗАСЧИТЫВАЕТСЯ! Золото
Дата: Зарегистрирован   [ Тип: внутренний ] Как тут cкачать?
MAGNET ссылка
MAGNET ссылка


Скачать .torrent

18 KB

Статус: проверено DHT
Скачан: торрент - 118 раз, раздача полностью - 62 раз
Размер: 3,48 GB
Оценка:  5 (Голосов: 2)
Поблагодарили: 5
Поделиться ссылкой на эту раздачу с друзьями:
В контактеFacebookОдноклассникиTwitterLivejournalМой МирLiveinternet
 

 
Показать сообщения:    


Вы не можете начинать темы
Вы не можете отвечать на сообщения
Вы не можете редактировать свои сообщения
Вы не можете удалять свои сообщения
Вы не можете голосовать в опросах
Вы не можете прикреплять файлы к сообщениям
Вы можете скачивать файлы