Loading...
Error

Скачать Библейские сказания / Пророк Иеремия. Обличитель царей / Jeremiah (Гарри Уайнер) [1998, драма, биография, история, религия, DVDRip-AVC] [MVO]+[Sub] торрент без регистрации

 
Статистика раздачи
Размер:  1,58 GB   |    Скачан:  160 раз
Сидов:  1  [  0 KB/s  ]  
 
Автор Сообщение

Marsianka

[] 

Информация о фильме
Название: Библейские сказания / Пророк Иеремия. Обличитель царей
Оригинальное название: Jeremiah
Год выхода: 1998
Жанр: драма, биография, история, религия
Режиссер: Гарри Уайнер
В ролях: Патрик Демпси, Оливер Рид, Клаус Мария Брандауэр, Винсент Риган, Леонор Варела, Андреа Оккипинти…

О фильме: «Фильм 9 из 13 “Библейской коллекции” »
Царь Иосия решил очистить свою землю от языческих культов, истребляя капища Ваала и Астарты. В это время Иеремия, призванный на высшее пророческое служение, словом и делом поддерживал царя. После смерти Иосии начались религиозный разброд и политическая смута. Народ перестал верить пророчествам Иеремии, и сам он, как нарушитель общественного порядка, подвергался гонениям…




Страна: Италия, Германия, США
Студия: Lux Vide S.p.a.
Продолжительность: 01:31:25
Перевод: Профессиональный (многоголосый, закадровый)

Файл
Кодек: h.264 (MKV)
Качество: DVDRip-AVC
Видео: AVC, 1024 x 768, ~2038 kbps
Звук: Русский: Dolby Digital 2.0; 192Kbps / Английский: Dolby Digital 2.0; 192Kbps
Субтитры: Русский (hardsub)

"Библейские сказания" - грандиозный телепроект, объединивший множество стран и лучших актеров мира для воссоздания главных событий Священного Писания. Величайшие пророки, цари Древнего Мира, апостолы и сам Христос - вот герои эпических сказаний, впервые перенесенных на экран столь зрелищно и масштабно.
Миллионы зрителей во всем мире смогли стать свидетелями самых главных событий человеческой истории, предшествовавших появлению Спасителя.
Практически каждый фильм проекта неоднократно номинировался и получал награды главных телепремий мира.
Продолжение следует…

Семпл
Общее
Уникальный идентификатор : 205384512323997991810217554803755565732 (0x9A839E44F6ED853CB3A757F629CFC2A4)
Полное имя : G: Библейские сказания Библейская коллекция The Bible (1994-2002-2009-2010) Полное коллекционное собраниеБиблейские сказания8. Пророк Иеремия. Обличитель царейНовая папка9. Jeremiah.1998.DVDRip-AVC.mkv
Формат : Matroska
Версия формата : Version 4 / Version 2
Размер файла : 1,58 Гбайт
Продолжительность : 1 ч. 31 м.
Общий поток : 2472 Кбит/сек
Дата кодирования : UTC 2014-07-20 10:01:53
Программа кодирования : mkvmerge v6.9.1 ('Blue Panther') 64bit built on Apr 18 2014 18:23:38
Библиотека кодирования : libebml v1.3.0 + libmatroska v1.4.1

Видео
Идентификатор : 1
Формат : AVC
Формат/Информация : Advanced Video Codec
Профиль формата : Main@L4.1
Параметр CABAC формата : Да
Параметр ReFrames формата : 1 кадр
Идентификатор кодека : V_MPEG4/ISO/AVC
Продолжительность : 1 ч. 31 м.
Битрейт : 2038 Кбит/сек
Ширина : 1024 пикселя
Высота : 768 пикселей
Соотношение сторон : 4:3
Режим частоты кадров : Постоянный
Частота кадров : 25,000 кадров/сек
Цветовое пространство : YUV
Субдискретизация насыщенности : 4:2:0
Битовая глубина : 8 бит
Тип развёртки : Прогрессивная
Бит/(Пиксели*Кадры) : 0.104
Размер потока : 1,30 Гбайт (82%)
Default : Да
Forced : Нет

Аудио #1
Идентификатор : 2
Формат : AC-3
Формат/Информация : Audio Coding 3
Расширение режима : CM (complete main)
Параметр Endianness формата : Big
Идентификатор кодека : A_AC3
Продолжительность : 1 ч. 31 м.
Вид битрейта : Постоянный
Битрейт : 192 Кбит/сек
Каналы : 2 канала
Расположение каналов : Front: L R
Частота : 48,0 КГц
Битовая глубина : 16 бит
Метод сжатия : С потерями
Размер потока : 126 Мбайт (8%)
Default : Да
Forced : Нет

Аудио #2
Идентификатор : 3
Формат : AC-3
Формат/Информация : Audio Coding 3
Расширение режима : CM (complete main)
Параметр Endianness формата : Big
Идентификатор кодека : A_AC3
Продолжительность : 1 ч. 31 м.
Вид битрейта : Постоянный
Битрейт : 192 Кбит/сек
Каналы : 2 канала
Расположение каналов : Front: L R
Частота : 48,0 КГц
Битовая глубина : 16 бит
Метод сжатия : С потерями
Размер потока : 126 Мбайт (8%)
Default : Нет
Forced : Нет



Скачать Библейские.сказания.Пророк.Иеремия.Обличитель.царей.Jeremiah.(Гарри.Уайнер).[1998.драма.биография.история.религия.DVDRip-AVC].[MVO]+[Sub].torrent без регистрации
Золото ЗОЛОТАЯ РАЗДАЧА! СКАЧАННОЕ НЕ ЗАСЧИТЫВАЕТСЯ! Золото
Дата: Зарегистрирован   [ Тип: внутренний ] Как тут cкачать?
MAGNET ссылка
MAGNET ссылка


Скачать .torrent

17 KB

Статус: проверено DHT
Скачан: торрент - 160 раз, раздача полностью - 27 раз
Размер: 1,58 GB
Оценка:  - (Голосов: 0)
Поблагодарили: 1
Поделиться ссылкой на эту раздачу с друзьями:
В контактеFacebookОдноклассникиTwitterLivejournalМой МирLiveinternet
 

 
Показать сообщения:    


Вы не можете начинать темы
Вы не можете отвечать на сообщения
Вы не можете редактировать свои сообщения
Вы не можете удалять свои сообщения
Вы не можете голосовать в опросах
Вы не можете прикреплять файлы к сообщениям
Вы можете скачивать файлы