Loading...
Error

Скачать Библейские сказания / Царь Соломон: Мудрейший из мудрых / Solomon (Роджер Янг) [1997, драма, приключения, биография, история, религия, DVDRip-AVC] [MVO] торрент без регистрации

 
Статистика раздачи
Размер:  2,95 GB   |    Скачан:  147 раз
Сидов:  1  [  0 KB/s  ]  
 
Автор Сообщение

Marsianka

[] 

Информация о фильме
Название: Библейские сказания / Царь Соломон: Мудрейший из мудрых
Оригинальное название: Solomon
Год выхода: 1997
Жанр: драма, приключения, биография, история, религия
Режиссер: Роджер Янг
В ролях: Бен Кросс, Анук Эме, Вивика А. Фокс, Макс фон Сюдов, Мария Грация Кучинотта, Умберто Орсини…

О фильме: «Фильм 7 из 13 “Библейской коллекции” »
Сын Давида и Вирсавии, царь Соломон прожил бурную и героическую жизнь. Его правление называли «Божественным даром». Он прославился огромной мудростью, обладал неслыханными богатствами, построил величественный Иерусалимский храм и сделал свою страну могучим и процветающим государством.

И, конечно же, у Соломона было очень много женщин — от красавицы Абишаг, прибывшей во дворец, чтобы скрасить последниегоды престарелого царя Давида, до Царицы Савской, о любовном и политическом союзе с которой говорил весь древний мир…




Страна: Великобритания, Чехия, Франция, Италия, Германия, США
Студия: Beta Film, France 2 (FR 2), Radiotelevisione Italiana (RAI)…
Продолжительность: 02:50:28
Перевод: Профессиональный (многоголосый, закадровый)

Файл
Кодек: h.264 (MKV)
Качество: DVDRip-AVC
Видео: AVC, 1024 x 768, ~2041 kbps
Звук: Русский: Dolby Digital 2.0; 192Kbps / Английский: Dolby Digital 2.0; 192Kbps
Субтитры: нет

"Библейские сказания" - грандиозный телепроект, объединивший множество стран и лучших актеров мира для воссоздания главных событий Священного Писания. Величайшие пророки, цари Древнего Мира, апостолы и сам Христос - вот герои эпических сказаний, впервые перенесенных на экран столь зрелищно и масштабно.
Миллионы зрителей во всем мире смогли стать свидетелями самых главных событий человеческой истории, предшествовавших появлению Спасителя.
Практически каждый фильм проекта неоднократно номинировался и получал награды главных телепремий мира.
Продолжение следует…


Семпл
Общее
Уникальный идентификатор : 204285309007914922484110251132274480364 (0x99AFEB5C98EF9B9DB87067D2C69E14EC)
Полное имя : G: Библейские сказания Библейская коллекция The Bible (1994-2002-2009-2010) Полное коллекционное собраниеБиблейские сказания1. Царь Соломон. Мудрейший из мудрыхНовая папка�7. Solomon.1997.DVDRip-AVC.mkv
Формат : Matroska
Версия формата : Version 4 / Version 2
Размер файла : 2,95 Гбайт
Продолжительность : 2 ч. 50 м.
Общий поток : 2475 Кбит/сек
Дата кодирования : UTC 2014-07-19 19:29:20
Программа кодирования : mkvmerge v6.9.1 ('Blue Panther') 64bit built on Apr 18 2014 18:23:38
Библиотека кодирования : libebml v1.3.0 + libmatroska v1.4.1

Видео
Идентификатор : 1
Формат : AVC
Формат/Информация : Advanced Video Codec
Профиль формата : Main@L4.1
Параметр CABAC формата : Да
Параметр ReFrames формата : 1 кадр
Идентификатор кодека : V_MPEG4/ISO/AVC
Продолжительность : 2 ч. 50 м.
Битрейт : 2041 Кбит/сек
Ширина : 1024 пикселя
Высота : 768 пикселей
Соотношение сторон : 4:3
Режим частоты кадров : Постоянный
Частота кадров : 25,000 кадров/сек
Цветовое пространство : YUV
Субдискретизация насыщенности : 4:2:0
Битовая глубина : 8 бит
Тип развёртки : Прогрессивная
Бит/(Пиксели*Кадры) : 0.104
Размер потока : 2,43 Гбайт (82%)
Default : Да
Forced : Нет

Аудио #1
Идентификатор : 2
Формат : AC-3
Формат/Информация : Audio Coding 3
Расширение режима : CM (complete main)
Параметр Endianness формата : Big
Идентификатор кодека : A_AC3
Продолжительность : 2 ч. 50 м.
Вид битрейта : Постоянный
Битрейт : 192 Кбит/сек
Каналы : 2 канала
Расположение каналов : Front: L R
Частота : 48,0 КГц
Битовая глубина : 16 бит
Метод сжатия : С потерями
Размер потока : 234 Мбайт (8%)
Default : Да
Forced : Нет

Аудио #2
Идентификатор : 3
Формат : AC-3
Формат/Информация : Audio Coding 3
Расширение режима : CM (complete main)
Параметр Endianness формата : Big
Идентификатор кодека : A_AC3
Продолжительность : 2 ч. 50 м.
Вид битрейта : Постоянный
Битрейт : 192 Кбит/сек
Каналы : 2 канала
Расположение каналов : Front: L R
Частота : 48,0 КГц
Битовая глубина : 16 бит
Метод сжатия : С потерями
Размер потока : 234 Мбайт (8%)
Default : Нет
Forced : Нет



Скачать Библейские.сказания.Царь.Соломон.Мудрейший.из.мудрых.Solomon.(Роджер.Янг).[1997.драма.приключения.биография.история.религия.DVDRip-AVC].[MVO].torrent без регистрации
Золото ЗОЛОТАЯ РАЗДАЧА! СКАЧАННОЕ НЕ ЗАСЧИТЫВАЕТСЯ! Золото
Дата: Зарегистрирован   [ Тип: внутренний ] Как тут cкачать?
MAGNET ссылка
MAGNET ссылка


Скачать .torrent

16 KB

Статус: проверено DHT
Скачан: торрент - 147 раз, раздача полностью - 138 раз
Размер: 2,95 GB
Оценка:  - (Голосов: 0)
Поблагодарили: 1
Поделиться ссылкой на эту раздачу с друзьями:
В контактеFacebookОдноклассникиTwitterLivejournalМой МирLiveinternet
 

 
Показать сообщения:    


Вы не можете начинать темы
Вы не можете отвечать на сообщения
Вы не можете редактировать свои сообщения
Вы не можете удалять свои сообщения
Вы не можете голосовать в опросах
Вы не можете прикреплять файлы к сообщениям
Вы можете скачивать файлы