Loading...
Error

Скачать Библейские сказания / Самсон и Далила: Любовь и предательство / Samson and Delilah (Николас Роуг) [1996, драма, мелодрама, приключения, история, религия, DVDRip-AVC] [MVO] торрент без регистрации

 
Статистика раздачи
Размер:  3,07 GB   |    Скачан:  112 раз
Сидов:  1  [  0 KB/s  ]  
 
Автор Сообщение

Marsianka

[] 

Информация о фильме
Название: Библейские сказания / Самсон и Далила: Любовь и предательство
Оригинальное название: Samson and Delilah
Год выхода: 1996
Жанр: драма, мелодрама, приключения, история, религия
Режиссер: Николас Роуг
В ролях: Эрик Тал, Элизабет Херли, Майкл Гэмбон, Деннис Хоппер, Дайана Ригг, Дэниел Мэсси…

О фильме: «Фильм 6 из 13 “Библейской коллекции” »
Самсон — один из самых знаменитых ветхозаветных героев. Он происходил из колена Дана, наиболее страдавшего от порабощения филистимлян. Самсон вырос среди рабского унижения своего народа и решил отомстить поработителям. Будучи посвящен Богу в качестве назорея (принявшего обед), он носил длинные волосы, служившие источником его необычайной физической мощи.

Самсон воспылал страстью к коварной Далиде, обещавшей филистимлянским правителям за вознаграждение выведать, в чем сила Самсона. После нескольких неудачных попыток ей все-таки удается узнать секрет силача и, усыпив, остричь ему волосы….




Страна: Германия, Италия, США
Студия: Beta Film, Lube Productions, Turner Pictures (I), Lux Vide S.p.a.
Продолжительность: 02:57:34
Перевод: Профессиональный (многоголосый, закадровый)

Файл
Кодек: h.264 (MKV)
Качество: DVDRip-AVC
Видео: AVC, 1024 x 768, ~2042 kbps
Звук: Русский: Dolby Digital 2.0; 192Kbps / Английский: Dolby Digital 2.0; 192Kbps
Субтитры: нет Продолжение следует…


Семпл
Общее
Уникальный идентификатор : 227653688443602090398192450827275031805 (0xAB44816BE15EE5058C8D5550902D54FD)
Полное имя : G: Библейские сказания Библейская коллекция The Bible (1994-2002-2009-2010) Полное коллекционное собраниеБиблейские сказания7. Самсон и Далила. Любовь и предательствоНовая папка�6. Samson and Delilah.1996.DVDRip-AVC.mkv
Формат : Matroska
Версия формата : Version 4 / Version 2
Размер файла : 3,07 Гбайт
Продолжительность : 2 ч. 57 м.
Общий поток : 2475 Кбит/сек
Дата кодирования : UTC 2014-07-19 08:24:13
Программа кодирования : mkvmerge v6.9.1 ('Blue Panther') 64bit built on Apr 18 2014 18:23:38
Библиотека кодирования : libebml v1.3.0 + libmatroska v1.4.1

Видео
Идентификатор : 1
Формат : AVC
Формат/Информация : Advanced Video Codec
Профиль формата : Main@L4.1
Параметр CABAC формата : Да
Параметр ReFrames формата : 1 кадр
Идентификатор кодека : V_MPEG4/ISO/AVC
Продолжительность : 2 ч. 57 м.
Битрейт : 2042 Кбит/сек
Ширина : 1024 пикселя
Высота : 768 пикселей
Соотношение сторон : 4:3
Режим частоты кадров : Постоянный
Частота кадров : 25,000 кадров/сек
Цветовое пространство : YUV
Субдискретизация насыщенности : 4:2:0
Битовая глубина : 8 бит
Тип развёртки : Прогрессивная
Бит/(Пиксели*Кадры) : 0.104
Размер потока : 2,53 Гбайт (82%)
Default : Да
Forced : Нет

Аудио #1
Идентификатор : 2
Формат : AC-3
Формат/Информация : Audio Coding 3
Расширение режима : CM (complete main)
Параметр Endianness формата : Big
Идентификатор кодека : A_AC3
Продолжительность : 2 ч. 57 м.
Вид битрейта : Постоянный
Битрейт : 192 Кбит/сек
Каналы : 2 канала
Расположение каналов : Front: L R
Частота : 48,0 КГц
Битовая глубина : 16 бит
Метод сжатия : С потерями
Размер потока : 244 Мбайт (8%)
Default : Да
Forced : Нет

Аудио #2
Идентификатор : 3
Формат : AC-3
Формат/Информация : Audio Coding 3
Расширение режима : CM (complete main)
Параметр Endianness формата : Big
Идентификатор кодека : A_AC3
Продолжительность : 2 ч. 57 м.
Вид битрейта : Постоянный
Битрейт : 192 Кбит/сек
Каналы : 2 канала
Расположение каналов : Front: L R
Частота : 48,0 КГц
Битовая глубина : 16 бит
Метод сжатия : С потерями
Размер потока : 244 Мбайт (8%)
Default : Нет
Forced : Нет



Скачать Библейские.сказания.Самсон.и.Далила.Любовь.и.предательство.Samson.and.Delilah.(Николас.Роуг).[1996.драма.мелодрама.приключения.история.религия.DVDRip-AVC].[MVO].torrent без регистрации
Золото ЗОЛОТАЯ РАЗДАЧА! СКАЧАННОЕ НЕ ЗАСЧИТЫВАЕТСЯ! Золото
Дата: Зарегистрирован   [ Тип: внутренний ] Как тут cкачать?
MAGNET ссылка
MAGNET ссылка


Скачать .torrent

16 KB

Статус: проверено DHT
Скачан: торрент - 112 раз, раздача полностью - 6 раз
Размер: 3,07 GB
Оценка:  - (Голосов: 0)
Поблагодарили: 1
Поделиться ссылкой на эту раздачу с друзьями:
В контактеFacebookОдноклассникиTwitterLivejournalМой МирLiveinternet
 

 
Показать сообщения:    


Вы не можете начинать темы
Вы не можете отвечать на сообщения
Вы не можете редактировать свои сообщения
Вы не можете удалять свои сообщения
Вы не можете голосовать в опросах
Вы не можете прикреплять файлы к сообщениям
Вы можете скачивать файлы