Loading...
Error

Скачать Библейские сказания / Царь Давид: Идеальный властитель / Die Bibel – David (Роберт Марковиц) [1997, драма, приключения, биография, история, религия, DVDRip-AVC] [MVO]+[Sub] торрент без регистрации

 
Статистика раздачи
Размер:  3,04 GB   |    Скачан:  135 раз

Полного источника не было: 25 минут

 
Автор Сообщение

Marsianka

[] 

Информация о фильме
Название: Библейские сказания / Царь Давид: Идеальный властитель
Оригинальное название: Die Bibel – David
Год выхода: 1997
Жанр: драма, приключения, биография, история, религия
Режиссер: Роберт Марковиц
В ролях: Натаниель Паркер, Джонатан Прайс, Леонард Нимой, Шерил Ли, Бен Дэниелс, Ричард Эшкрофт…

О фильме: «Фильм 8 из 13 “Библейской коллекции” »
Давид родился в семье пастуха, но воспитывался пророками Самуилом и Натаном. Восхождение Давида к вершинам власти было нелегким. Ему довелось сразиться со многими врагами — от богатыря-гиганта филистимлян Голиафа до израильского царя Саула. За время своего сорокалетнего правления Давид пережил немало битв, предательств и потерь.

Им двигали самые разные чувства — от страстной и запретной любви к Вирсавии до лютой ненависти к внешним и внутренним врагам. Он провел множество войн и пролил реки крови. Поэтому не ему было доверено Богом построить Храм Господень в Иерусалиме. Эта великая судьба выпала сыну Давида…




Страна: США, Италия, Германия
Студия: Beta Film, Lube Productions, Lux Vide S.p.a….
Продолжительность: 02:55:37
Перевод: Профессиональный (многоголосый, закадровый)

Файл
Кодек: h.264 (MKV)
Качество: DVDRip-AVC
Видео: AVC, 1024 x 768, ~2043 kbps
Звук: Русский: Dolby Digital 2.0; 192Kbps / Английский: Dolby Digital 2.0; 192Kbps
Субтитры: Русский (hardsub)

"Библейские сказания" - грандиозный телепроект, объединивший множество стран и лучших актеров мира для воссоздания главных событий Священного Писания. Величайшие пророки, цари Древнего Мира, апостолы и сам Христос - вот герои эпических сказаний, впервые перенесенных на экран столь зрелищно и масштабно.
Миллионы зрителей во всем мире смогли стать свидетелями самых главных событий человеческой истории, предшествовавших появлению Спасителя.
Практически каждый фильм проекта неоднократно номинировался и получал награды главных телепремий мира.
Продолжение следует…


Семпл
Общее
Уникальный идентификатор : 188448948766628883347373560215957953569 (0x8DC5F284FDEA3578AB80C3EE70D05C21)
Полное имя : G: Библейские сказания Библейская коллекция The Bible (1994-2002-2009-2010) Полное коллекционное собраниеБиблейские сказания3. Царь Давид. Идеальный властительНовая папка�8. Die Bibel - David.1997.DVDRip-AVC.mkv
Формат : Matroska
Версия формата : Version 4 / Version 2
Размер файла : 3,04 Гбайт
Продолжительность : 2 ч. 55 м.
Общий поток : 2477 Кбит/сек
Дата кодирования : UTC 2014-07-20 04:31:40
Программа кодирования : mkvmerge v6.9.1 ('Blue Panther') 64bit built on Apr 18 2014 18:23:38
Библиотека кодирования : libebml v1.3.0 + libmatroska v1.4.1

Видео
Идентификатор : 1
Формат : AVC
Формат/Информация : Advanced Video Codec
Профиль формата : Main@L4.1
Параметр CABAC формата : Да
Параметр ReFrames формата : 1 кадр
Идентификатор кодека : V_MPEG4/ISO/AVC
Продолжительность : 2 ч. 55 м.
Битрейт : 2043 Кбит/сек
Ширина : 1024 пикселя
Высота : 768 пикселей
Соотношение сторон : 4:3
Режим частоты кадров : Постоянный
Частота кадров : 25,000 кадров/сек
Цветовое пространство : YUV
Субдискретизация насыщенности : 4:2:0
Битовая глубина : 8 бит
Тип развёртки : Прогрессивная
Бит/(Пиксели*Кадры) : 0.104
Размер потока : 2,51 Гбайт (83%)
Default : Да
Forced : Нет

Аудио #1
Идентификатор : 2
Формат : AC-3
Формат/Информация : Audio Coding 3
Расширение режима : CM (complete main)
Параметр Endianness формата : Big
Идентификатор кодека : A_AC3
Продолжительность : 2 ч. 55 м.
Вид битрейта : Постоянный
Битрейт : 192 Кбит/сек
Каналы : 2 канала
Расположение каналов : Front: L R
Частота : 48,0 КГц
Битовая глубина : 16 бит
Метод сжатия : С потерями
Размер потока : 241 Мбайт (8%)
Default : Да
Forced : Нет

Аудио #2
Идентификатор : 3
Формат : AC-3
Формат/Информация : Audio Coding 3
Расширение режима : CM (complete main)
Параметр Endianness формата : Big
Идентификатор кодека : A_AC3
Продолжительность : 2 ч. 55 м.
Вид битрейта : Постоянный
Битрейт : 192 Кбит/сек
Каналы : 2 канала
Расположение каналов : Front: L R
Частота : 48,0 КГц
Битовая глубина : 16 бит
Метод сжатия : С потерями
Размер потока : 241 Мбайт (8%)
Default : Нет
Forced : Нет



Скачать Библейские.сказания.Царь.Давид.Идеальный.властитель.Die.Bibel.–.David.(Роберт.Марковиц).[1997.драма.приключения.биография.история.религия.DVDRip-AVC].[MVO]+[Sub].torrent без регистрации
Золото ЗОЛОТАЯ РАЗДАЧА! СКАЧАННОЕ НЕ ЗАСЧИТЫВАЕТСЯ! Золото
Дата: Зарегистрирован   [ Тип: внутренний ] Как тут cкачать?
MAGNET ссылка
MAGNET ссылка


Скачать .torrent

16 KB

Статус: проверено DHT
Скачан: торрент - 135 раз, раздача полностью - 42 раз
Размер: 3,04 GB
Оценка:  - (Голосов: 0)
Поблагодарили: 1
Поделиться ссылкой на эту раздачу с друзьями:
В контактеFacebookОдноклассникиTwitterLivejournalМой МирLiveinternet
 

 
Показать сообщения:    


Вы не можете начинать темы
Вы не можете отвечать на сообщения
Вы не можете редактировать свои сообщения
Вы не можете удалять свои сообщения
Вы не можете голосовать в опросах
Вы не можете прикреплять файлы к сообщениям
Вы можете скачивать файлы