Loading...
Error

Скачать Библейские сказания / Есфирь Прекрасная: Царица-защитница / Esther (Раффаэле Мертес) [1999, драма, мелодрама, криминал, биография, история, религия, DVDRip-AVC] [MVO]+[Sub] торрент без регистрации

 
Статистика раздачи
Размер:  1,45 GB   |    Скачан:  144 раза
Сидов:  1  [  0 KB/s  ]  
 
Автор Сообщение

Marsianka

[] 

Информация о фильме
Название: Библейские сказания / Есфирь Прекрасная: Царица-защитница
Оригинальное название: Esther
Год выхода: 1999
Жанр: драма, мелодрама, криминал, биография, история, религия
Режиссер: Раффаэле Мертес
В ролях: Луиза Ломбард, Орнелла Мути, Ф. Мюррэй Абрахам, Юрген Прохнов, Томас Кречман, Фрэнк Бэйкер…

О фильме: «Фильм 11 из 13 “Библейской коллекции” »
Один из могущественнейших правителей прошлого, персидский царь Ксеркс, устроил грандиозный пир. На седьмой день пира он захотел показать гостям свою красавицу-жену, но получил от царицы отказ. Тогда Ксеркс лишил жену царского достоинства и потребовал доставить ему самых красивых девушек со всех концов мира. Юной Эсфири удалось завоевать расположение царя и стать его новой женой.

Спустя время царский любимец визирь Аман сумел убедить Ксеркса в необходимости уничтожения всех евреев Персидского царства. Прекрасная Эсфирь узнает о готовящейся резне и решает заступиться за свой народ перед жестоким правителем. Но любой, кто является к царю без приглашения, должен быть казнен…




Страна: Италия, Германия, США
Студия: Beta Film, France 2 (FR 2), Radiotelevisione Italiana (RAI)…
Продолжительность: 01:27:08
Перевод: Профессиональный многоголосый

Файл
Кодек: h.264 (MKV)
Качество: DVDRip-AVC
Видео: AVC, 1024 x 768, ~1952 kbps
Звук: Русский: Dolby Digital 2.0; 192Kbps / Английский: Dolby Digital 2.0; 192Kbps
Субтитры: Русский (hardsub)

"Библейские сказания" - грандиозный телепроект, объединивший множество стран и лучших актеров мира для воссоздания главных событий Священного Писания. Величайшие пророки, цари Древнего Мира, апостолы и сам Христос - вот герои эпических сказаний, впервые перенесенных на экран столь зрелищно и масштабно.
Миллионы зрителей во всем мире смогли стать свидетелями самых главных событий человеческой истории, предшествовавших появлению Спасителя.
Практически каждый фильм проекта неоднократно номинировался и получал награды главных телепремий мира.
Продолжение следует…


Семпл
Общее
Уникальный идентификатор : 235557165052481199122203984953768857011 (0xB136A8E746060AACA21660F1C9F2CDB3)
Полное имя : G:ДИСК 21.ФИЛЬМЫБиблейские сказания Библейская коллекция The Bible (1994-2002-2009-2010) Полное коллекционное собраниеБиблейские сказания10. Библейские сказания Эсфирь The Bible Esther 199911. The Bible Esther.1999.DVDRip-AVC.mkv
Формат : Matroska
Версия формата : Version 4 / Version 2
Размер файла : 1,45 Гбайт
Продолжительность : 1 ч. 27 м.
Общий поток : 2383 Кбит/сек
Дата кодирования : UTC 2014-07-17 02:58:17
Программа кодирования : mkvmerge v6.9.1 ('Blue Panther') 64bit built on Apr 18 2014 18:23:38
Библиотека кодирования : libebml v1.3.0 + libmatroska v1.4.1

Видео
Идентификатор : 1
Формат : AVC
Формат/Информация : Advanced Video Codec
Профиль формата : Main@L4.1
Параметр CABAC формата : Да
Параметр ReFrames формата : 1 кадр
Идентификатор кодека : V_MPEG4/ISO/AVC
Продолжительность : 1 ч. 27 м.
Битрейт : 1952 Кбит/сек
Ширина : 1024 пикселя
Высота : 768 пикселей
Соотношение сторон : 4:3
Режим частоты кадров : Постоянный
Частота кадров : 25,000 кадров/сек
Цветовое пространство : YUV
Субдискретизация насыщенности : 4:2:0
Битовая глубина : 8 бит
Тип развёртки : Прогрессивная
Бит/(Пиксели*Кадры) : 0.099
Размер потока : 1,19 Гбайт (82%)
Default : Да
Forced : Нет

Аудио #1
Идентификатор : 2
Формат : AC-3
Формат/Информация : Audio Coding 3
Расширение режима : CM (complete main)
Параметр Endianness формата : Big
Идентификатор кодека : A_AC3
Продолжительность : 1 ч. 27 м.
Вид битрейта : Постоянный
Битрейт : 192 Кбит/сек
Каналы : 2 канала
Расположение каналов : Front: L R
Частота : 48,0 КГц
Битовая глубина : 16 бит
Метод сжатия : С потерями
Размер потока : 120 Мбайт (8%)
Default : Да
Forced : Нет

Аудио #2
Идентификатор : 3
Формат : AC-3
Формат/Информация : Audio Coding 3
Расширение режима : CM (complete main)
Параметр Endianness формата : Big
Идентификатор кодека : A_AC3
Продолжительность : 1 ч. 27 м.
Вид битрейта : Постоянный
Битрейт : 192 Кбит/сек
Каналы : 2 канала
Расположение каналов : Front: L R
Частота : 48,0 КГц
Битовая глубина : 16 бит
Метод сжатия : С потерями
Размер потока : 120 Мбайт (8%)
Default : Нет
Forced : Нет



Скачать Библейские.сказания.Есфирь.Прекрасная.Царица-защитница.Esther.(Раффаэле.Мертес).[1999.драма.мелодрама.криминал.биография.история.религия.DVDRip-AVC].[MVO]+[Sub].torrent без регистрации
Золото ЗОЛОТАЯ РАЗДАЧА! СКАЧАННОЕ НЕ ЗАСЧИТЫВАЕТСЯ! Золото
Дата: Зарегистрирован   [ Тип: внутренний ] Как тут cкачать?
MAGNET ссылка
MAGNET ссылка


Скачать .torrent

15 KB

Статус: проверено DHT
Скачан: торрент - 144 раз, раздача полностью - 51 раз
Размер: 1,45 GB
Оценка:  - (Голосов: 0)
Поблагодарили: 1
Поделиться ссылкой на эту раздачу с друзьями:
В контактеFacebookОдноклассникиTwitterLivejournalМой МирLiveinternet
 

 
Показать сообщения:    


Вы не можете начинать темы
Вы не можете отвечать на сообщения
Вы не можете редактировать свои сообщения
Вы не можете удалять свои сообщения
Вы не можете голосовать в опросах
Вы не можете прикреплять файлы к сообщениям
Вы можете скачивать файлы