Loading...
Error

Скачать Отряд 10 из Наварона / Force 10 from Navarone (Гай Хэмилтон) [1978, боевик, драма, военный, BDRip-AVC] [MVO]x2+[Оригинал]+[Sub] торрент без регистрации

 
Статистика раздачи
Размер:  3,81 GB   |    Скачан:  151 раз
Сидов:  1  [  0 KB/s  ]  
 
Автор Сообщение

Marsianka

[] 

Информация о фильме
Название: Отряд 10 из Наварона
Оригинальное название: Force 10 from Navarone
Год выхода: 1978
Жанр: боевик, драма, военный
Режиссер: Гай Хэмилтон
В ролях: Харрисон Форд, Роберт Шоу, Барбара Бах, Эдвард Фокс, Франко Неро, Карл Уэзерс, Ричард Кил, Алан Бадел, Майкл Бирн, Филип Лэтэм, Энгус МакИннес, Майкл Ширд, Лесли Скофилд, Энтони Лэнгдон, Ричард Хэмптон, Пол Хамполец, Дикен Эшворт, Кристофер Малкольм, Ник Эллсворт, Джонатан Блейк, Роджер Оуэн, Грем Краузер, Джим Даудэлл, Майкл Осборн, Эдвард Пил, Майкл Джозефс, Юрген Андерсен

О фильме: Два главных героя — Клифф Мэллори, ставший майором — и его друг-взрывник Миллер выбрасываются с самолета в Югославии, где им предстоит в сотрудничестве с десантным отрядом полковника Барнсби и местными партизанами взорвать крайне важный для немцев мост. Но им противостоит предатель Лесковар…



Страна: Великобритания
Студия: Columbia Pictures Corporation, Navarone Productions, American International Pictures (AIP)
Продолжительность: 02:05:51
Перевод: Профессиональный многоголосый, украинский

Файл
Кодек: MPEG-4 AVC
Качество: BDRip-AVC
Видео: 3500 Кбит/с, 1024x438, 23.976 кадр/с
Звук:
Аудио #1: Русский (AC3, 2 ch, 192 Кбит/с) / Профессиональный многоголосый
Аудио #2: Украинский (AC3, 2 ch, 192 Кбит/с) / Профессиональный многоголосый (IHTEP)
Аудио #3: Английский (AC3, 6 ch, 448 Кбит/с)
Субтитры: Английские (SDH)

Семпл
Общее
Уникальный идентификатор : 195887269166652243938665239401173093341 (0x935E84079E0336D1A658757B57CC0BDD)
Полное имя : D:Мои РипыOtriad.10.Iz.Navarona.1978.x264.BDRip.AVC.MediaClub.mkv
Формат : Matroska
Версия формата : Version 4 / Version 2
Размер файла : 3,81 Гбайт
Продолжительность : 2 ч. 5 м.
Общий поток : 4334 Кбит/сек
Название фильма : = MediaClub = rip by krakatuq
Дата кодирования : UTC 2014-07-21 14:56:36
Программа кодирования : mkvmerge v6.6.0 ('The Edge Of The In Between') built on Dec 1 2013 17:55:00
Библиотека кодирования : libebml v1.3.0 + libmatroska v1.4.1

Видео
Идентификатор : 1
Формат : AVC
Формат/Информация : Advanced Video Codec
Профиль формата : High@L4.1
Параметр CABAC формата : Да
Параметр ReFrames формата : 9 кадров
Идентификатор кодека : V_MPEG4/ISO/AVC
Продолжительность : 2 ч. 5 м.
Битрейт : 3500 Кбит/сек
Ширина : 1024 пикселя
Высота : 438 пикселей
Соотношение сторон : 2,35:1
Режим частоты кадров : Постоянный
Частота кадров : 23,976 кадра/сек
Цветовое пространство : YUV
Субдискретизация насыщенности : 4:2:0
Битовая глубина : 8 бит
Тип развёртки : Прогрессивная
Бит/(Пиксели*Кадры) : 0.325
Размер потока : 3,00 Гбайт (79%)
Заголовок : Otriad.10.Iz.Navarona.1978.x264.BDRip.AVC.MediaClub
Библиотека кодирования : x264 core 142 r2409+42 04be48a tMod [8-bit@4:2:0 X86]
Настройки программы : cabac=1 / ref=9 / deblock=1:-2:-2 / analyse=0x3:0x133 / me=umh / subme=11 / psy=1 / fade_compensate=0.00 / psy_rd=1.00:0.20 / mixed_ref=1 / me_range=32 / chroma_me=1 / trellis=2 / 8x8dct=1 / cqm=0 / deadzone=21,11 / fast_pskip=0 / chroma_qp_offset=-3 / threads=3 / lookahead_threads=1 / sliced_threads=0 / nr=0 / decimate=0 / interlaced=0 / bluray_compat=0 / constrained_intra=0 / fgo=0 / bframes=8 / b_pyramid=2 / b_adapt=2 / b_bias=0 / direct=3 / weightb=1 / open_gop=0 / weightp=2 / keyint=240 / keyint_min=23 / scenecut=40 / intra_refresh=0 / rc=2pass / mbtree=0 / bitrate=3500 / ratetol=1.0 / qcomp=0.60 / qpmin=0:0:0 / qpmax=69:69:69 / qpstep=4 / cplxblur=20.0 / qblur=0.5 / ip_ratio=1.40 / pb_ratio=1.30 / aq=1:1.00 / aq-sensitivity=10.00 / aq-factor=1.00:1.00:1.00 / aq2=0 / aq3=0
Язык : English
Default : Да
Forced : Нет

Аудио #1
Идентификатор : 2
Формат : AC-3
Формат/Информация : Audio Coding 3
Расширение режима : CM (complete main)
Параметр Endianness формата : Big
Идентификатор кодека : A_AC3
Продолжительность : 2 ч. 5 м.
Вид битрейта : Постоянный
Битрейт : 192 Кбит/сек
Каналы : 2 канала
Расположение каналов : Front: L R
Частота : 48,0 КГц
Битовая глубина : 16 бит
Метод сжатия : С потерями
Размер потока : 173 Мбайт (4%)
Заголовок : TRACK_01_MVO_RUS
Язык : Russian
Default : Да
Forced : Да

Аудио #2
Идентификатор : 3
Формат : AC-3
Формат/Информация : Audio Coding 3
Расширение режима : CM (complete main)
Параметр Endianness формата : Big
Идентификатор кодека : A_AC3
Продолжительность : 2 ч. 5 м.
Вид битрейта : Постоянный
Битрейт : 192 Кбит/сек
Каналы : 2 канала
Расположение каналов : Front: L R
Частота : 48,0 КГц
Битовая глубина : 16 бит
Метод сжатия : С потерями
Размер потока : 173 Мбайт (4%)
Заголовок : TRACK_02_MVO_UKR
Язык : Ukrainian
Default : Нет
Forced : Нет

Аудио #3
Идентификатор : 4
Формат : AC-3
Формат/Информация : Audio Coding 3
Расширение режима : CM (complete main)
Параметр Endianness формата : Big
Идентификатор кодека : A_AC3
Продолжительность : 2 ч. 5 м.
Вид битрейта : Постоянный
Битрейт : 448 Кбит/сек
Каналы : 6 каналов
Расположение каналов : Front: L C R, Side: L R, LFE
Частота : 48,0 КГц
Битовая глубина : 16 бит
Метод сжатия : С потерями
Размер потока : 403 Мбайт (10%)
Заголовок : TRACK_03_ORIGINAL_ENG
Язык : English
Default : Нет
Forced : Нет

Текст
Идентификатор : 5
Формат : UTF-8
Идентификатор кодека : S_TEXT/UTF8
Идентификатор кодека/Информация : UTF-8 Plain Text
Заголовок : TEXT_01_SUB_ENG
Язык : English
Default : Нет
Forced : Нет

Меню
00:00:00.000 : en:00:00:00.000
00:04:05.078 : en:00:04:05.078
00:08:31.636 : en:00:08:31.636
00:15:39.230 : en:00:15:39.230
00:17:45.690 : en:00:17:45.690
00:22:59.044 : en:00:22:59.044
00:24:25.464 : en:00:24:25.464
00:28:08.478 : en:00:28:08.478
00:32:47.340 : en:00:32:47.340
00:33:10.030 : en:00:33:10.030
00:34:36.241 : en:00:34:36.241
00:37:23.658 : en:00:37:23.658
00:41:50.883 : en:00:41:50.883
00:45:04.827 : en:00:45:04.827
00:47:50.493 : en:00:47:50.493
00:53:24.451 : en:00:53:24.451
00:56:19.668 : en:00:56:19.668
01:00:10.482 : en:01:00:10.482
01:02:58.400 : en:01:02:58.400
01:05:27.549 : en:01:05:27.549
01:09:36.005 : en:01:09:36.005
01:12:56.205 : en:01:12:56.205
01:18:03.679 : en:01:18:03.679
01:20:29.199 : en:01:20:29.199
01:29:34.119 : en:01:29:34.119
01:35:59.337 : en:01:35:59.337
01:39:50.193 : en:01:39:50.193
01:44:43.444 : en:01:44:43.444
01:47:40.913 : en:01:47:40.913
01:51:14.543 : en:01:51:14.543
01:53:32.139 : en:01:53:32.139
02:01:17.770 : en:02:01:17.770
Релиз от:

Автор рипа:



Скачать Отряд.10.из.Наварона.Force.10.from.Navarone.(Гай.Хэмилтон).[1978.боевик.драма.военный.BDRip-AVC].[MVO]x2+[Оригинал]+[Sub].torrent без регистрации
Золото ЗОЛОТАЯ РАЗДАЧА! СКАЧАННОЕ НЕ ЗАСЧИТЫВАЕТСЯ! Золото
Дата: Зарегистрирован   [ Тип: внутренний ] Как тут cкачать?
MAGNET ссылка
MAGNET ссылка


Скачать .torrent

20 KB

Статус: проверено DHT
Скачан: торрент - 151 раз, раздача полностью - 38 раз
Размер: 3,81 GB
Оценка:  - (Голосов: 0)
Поблагодарили: 2
Поделиться ссылкой на эту раздачу с друзьями:
В контактеFacebookОдноклассникиTwitterLivejournalМой МирLiveinternet
 

 
Показать сообщения:    


Вы не можете начинать темы
Вы не можете отвечать на сообщения
Вы не можете редактировать свои сообщения
Вы не можете удалять свои сообщения
Вы не можете голосовать в опросах
Вы не можете прикреплять файлы к сообщениям
Вы можете скачивать файлы