Loading...
Error

Скачать Последний подарок / The Ultimate Gift (Майкл О. Саджбел) [2006, драма, мелодрама, семейный, BDRip-AVC] [MVO]+[Sub] торрент без регистрации

 
Статистика раздачи
Размер:  3,31 GB   |    Скачан:  149 раз
Сидов:  1  [  0 KB/s  ]  
 
Автор Сообщение

Marsianka

[] 

Информация о фильме
Название: Последний подарок
Оригинальное название: The Ultimate Gift
Год выхода: 2006
Жанр: драма, мелодрама, семейный
Режиссер: Майкл О. Саджбел
В ролях: Джеймс Гарнер, Билл Коббс, Ли Меривезер, Джордж Ли, Бретт Райс, Д. Дэвид Морин, Эбигейл Бреслин, Али Хиллис, Дрю Фуллер, Марсей Монро, Донна Черри, Катрин МакГухан, Марк Джой, Мэл Фэйр, Алисия Брэйди Куркуру, Френсис Исаак, Дэниэл Барбо, Кеннет А. Фри мл., Тоня Шаффлер, Роджер В. Дюрретт, Дэвид Темпл, Эрик Джиллилэнд, Брайан Деннехи, Майкл Розандер, Тим Парати, Дин Канеширо, Тэмми Фонтейн, Том Кондер, Майк Пневски, Элиша Т. Минтер, Виктор Ли, Брайан Ф. Даркин, Роуз Бьянко, Майкл Фрагуарда, Карла Родригез, Бенжамин Парра, Джон Ларринсон Лондоно, Джим Стовэлл

О фильме:
Джейсон, избалованный плейбой, купается в деньгах своего супербогатого дедушки Говарда Стивенса, что не мешает ему ненавидеть своего благодетеля. Однако старик покидает этот мир и после своей смерти оставляет Джейсону неожиданный подарок. Юноша получит наследство, только если справится с двенадцатью заданиями, которые для богача с претензиями станут испытанием на грани возможного. Джейсона ждут 12 незабываемых уроков жизни. Сдаст ли он самый трудный экзамен, который придумал для него хитрый Говард Стивенс?
Рейтинг PG - Рекомендуется присутствие родителей
Общее
Уникальный идентификатор : 213671419036369962342470300938651833539 (0xA0BF9E50A77B29EC811BB6C8E7B814C3)
Полное имя : G:Готово!!!Poslednij.podarok.2006.x264.BDRip-AVC-MediaClub.mkv
Формат : Matroska
Версия формата : Version 2
Размер файла : 3,31 Гбайт
Продолжительность : 1 ч. 57 м.
Общий поток : 4039 Кбит/сек
Название фильма : Poslednij podarok (2006) BDRip-AVC=MediaClub=-[Викс]-
Дата кодирования : UTC 2014-07-21 11:15:32
Программа кодирования : mkvmerge v5.8.0 ('No Sleep / Pillow') built on Sep 2 2012 15:37:04
Библиотека кодирования : libebml v1.2.3 + libmatroska v1.3.0

Видео
Идентификатор : 1
Формат : AVC
Формат/Информация : Advanced Video Codec
Профиль формата : High@L4.1
Параметр CABAC формата : Да
Параметр ReFrames формата : 8 кадров
Идентификатор кодека : V_MPEG4/ISO/AVC
Продолжительность : 1 ч. 57 м.
Битрейт : 3150 Кбит/сек
Ширина : 1024 пикселя
Высота : 552 пикселя
Соотношение сторон : 1,85:1
Режим частоты кадров : Постоянный
Частота кадров : 23,976 кадра/сек
Цветовое пространство : YUV
Субдискретизация насыщенности : 4:2:0
Битовая глубина : 8 бит
Тип развёртки : Прогрессивная
Бит/(Пиксели*Кадры) : 0.232
Размер потока : 2,51 Гбайт (76%)
Библиотека кодирования : x264 core 142 r2431 ac76440
Настройки программы : cabac=1 / ref=8 / deblock=1:-2:-2 / analyse=0x3:0x113 / me=umh / subme=11 / psy=1 / psy_rd=1.00:0.00 / mixed_ref=1 / me_range=48 / chroma_me=1 / trellis=2 / 8x8dct=1 / cqm=0 / deadzone=21,11 / fast_pskip=0 / chroma_qp_offset=-2 / threads=6 / lookahead_threads=1 / sliced_threads=0 / nr=0 / decimate=0 / interlaced=0 / bluray_compat=0 / constrained_intra=0 / bframes=8 / b_pyramid=2 / b_adapt=2 / b_bias=0 / direct=3 / weightb=1 / open_gop=0 / weightp=2 / keyint=240 / keyint_min=23 / scenecut=40 / intra_refresh=0 / rc_lookahead=40 / rc=2pass / mbtree=0 / bitrate=3150 / ratetol=1.0 / qcomp=0.60 / qpmin=0 / qpmax=69 / qpstep=4 / cplxblur=20.0 / qblur=0.5 / vbv_maxrate=50000 / vbv_bufsize=52500 / nal_hrd=none / filler=0 / ip_ratio=1.40 / pb_ratio=1.30 / aq=1:0.80
Язык : English
Default : Да
Forced : Нет

Аудио #1
Идентификатор : 2
Формат : AC-3
Формат/Информация : Audio Coding 3
Расширение режима : CM (complete main)
Параметр Endianness формата : Big
Идентификатор кодека : A_AC3
Продолжительность : 1 ч. 57 м.
Вид битрейта : Постоянный
Битрейт : 448 Кбит/сек
Каналы : 6 каналов
Расположение каналов : Front: L C R, Side: L R, LFE
Частота : 48,0 КГц
Битовая глубина : 16 бит
Метод сжатия : С потерями
Размер потока : 376 Мбайт (11%)
Язык : Russian
Default : Да
Forced : Нет

Аудио #2
Идентификатор : 3
Формат : AC-3
Формат/Информация : Audio Coding 3
Расширение режима : CM (complete main)
Параметр Endianness формата : Big
Идентификатор кодека : A_AC3
Продолжительность : 1 ч. 57 м.
Вид битрейта : Постоянный
Битрейт : 448 Кбит/сек
Каналы : 6 каналов
Расположение каналов : Front: L C R, Side: L R, LFE
Частота : 48,0 КГц
Битовая глубина : 16 бит
Метод сжатия : С потерями
Размер потока : 376 Мбайт (11%)
Язык : English
Default : Нет
Forced : Нет

Текст
Идентификатор : 4
Формат : UTF-8
Идентификатор кодека : S_TEXT/UTF8
Идентификатор кодека/Информация : UTF-8 Plain Text
Язык : Russian
Default : Да
Forced : Нет

Меню
00:00:00.000 : :Chapter 01
00:03:42.180 : :Chapter 02
00:07:10.596 : :Chapter 03
00:12:18.654 : :Chapter 04
00:14:10.140 : :Chapter 05
00:19:36.842 : :Chapter 06
00:22:54.289 : :Chapter 07
00:25:04.294 : :Chapter 08
00:31:34.809 : :Chapter 09
00:36:13.629 : :Chapter 10
00:38:56.167 : :Chapter 11
00:41:52.218 : :Chapter 12
00:45:31.603 : :Chapter 13
00:46:14.813 : :Chapter 14
00:53:12.480 : :Chapter 15
01:00:02.140 : :Chapter 16
01:03:40.942 : :Chapter 17
01:09:58.861 : :Chapter 18
01:13:59.685 : :Chapter 19
01:20:01.213 : :Chapter 20
01:22:35.450 : :Chapter 21
01:26:02.532 : :Chapter 22
01:30:01.020 : :Chapter 23
01:33:49.415 : :Chapter 24
01:40:23.058 : :Chapter 25
01:42:36.358 : :Chapter 26
01:45:26.778 : :Chapter 27
01:49:17.676 : :Chapter 28
x264 [info]: frame I:1543 Avg QP:15.34 size: 85743
x264 [info]: frame P:33463 Avg QP:18.07 size: 31526
x264 [info]: frame B:133595 Avg QP:19.97 size: 11816
Официальный сайт

Страна: США
Студия: The Ultimate Gift LLC, Dean River Productions, LIFE(n), Life (n) Media, Stanford Financial Group
Продолжительность: 01:57:24
Перевод: Профессиональный многоголосый

Файл
Кодек: x264
Качество: BDRip-AVC
Видео: MPEG-4 AVC, 3150 Кбит/с, 1024x552, 23.976 кадр/с
Аудио #1: Русский (AC3, 6 ch, 448 Кбит/с) / Профессиональный многоголосый
Аудио #2: Английский (AC3, 6 ch, 448 Кбит/с)
Субтитры: Русские
Семпл Релиз от: Рип, работа с аудио - Викс



Скачать Последний.подарок.The.Ultimate.Gift.(Майкл.О.Саджбел).[2006.драма.мелодрама.семейный.BDRip-AVC].[MVO]+[Sub].torrent без регистрации
Золото ЗОЛОТАЯ РАЗДАЧА! СКАЧАННОЕ НЕ ЗАСЧИТЫВАЕТСЯ! Золото
Дата: Зарегистрирован   [ Тип: внутренний ] Как тут cкачать?
MAGNET ссылка
MAGNET ссылка


Скачать .torrent

18 KB

Статус: проверено DHT
Скачан: торрент - 149 раз, раздача полностью - 45 раз
Размер: 3,31 GB
Оценка:  - (Голосов: 0)
Поблагодарили: 3
Поделиться ссылкой на эту раздачу с друзьями:
В контактеFacebookОдноклассникиTwitterLivejournalМой МирLiveinternet
 

 
Показать сообщения:    


Вы не можете начинать темы
Вы не можете отвечать на сообщения
Вы не можете редактировать свои сообщения
Вы не можете удалять свои сообщения
Вы не можете голосовать в опросах
Вы не можете прикреплять файлы к сообщениям
Вы можете скачивать файлы