Loading...
Error

Скачать Люди мафии / Made Men (Луис Морно) [1999, боевик, триллер, комедия, DVDRip] [MVO] торрент без регистрации

 
Статистика раздачи
Размер:  745 MB   |    Скачан:  148 раз

Полного источника не было: 25 минут

 
Автор Сообщение

Marsianka

[] 

Страна: США
Производство: Decade Pictures, Made Men Productions Inc.

Жанр: боевик, триллер, комедия
Год выпуска: 1999
Продолжительность: 01:26:54

Перевод: Профессиональный (многоголосый, закадровый)
Оригинальная аудиодорожка: нет
Cубтитры: нет

Режиссер: Луис Морно / Louis Morneau

В ролях:
Джеймс Белуши, Тимоти Далтон, Джейми Харрис, Дэвид О'Доннелл, Карлтон Уилборн, Ванесса Эйнджел, Стив Рэйлсбэк, Майкл Бич...

Описание:
Билл Вануччи, включенный в программу защиты свидетелей, в страшной спешке подпиливает пули, готовит оружие и отправляет свою жену Дебру в Лос-Анджелес. Приходят неприятные люди с оружием и собираются пытать Билла, упрекая его в том, что он предал Шкиппера. Билл говорит, что он просто украл у него деньги. Ребята хотят знать, где спрятаны деньги Шкиппера, и под шум сверла Билл обещает показать, где деньги зарыты. Уже в машине Билл обещает всем по четыре миллиона из 12 украденных, а на заправке к бандитам подходит Декс, местный шериф города Хармони, интересующийся, откуда появились «неместные». Шериф сообщает о них по рации своему напарнику Корли и просит последить за машиной. Билл «разводит» недалеких бандитов, расписывая, как на бензоколонке они хотели убить отсутствующих, и, воспользовавшись дракой, бежит. Тем временем помощник шерифа Корли просит предъявить права у оставшегося у машины бандита и получает несколько пуль в грудь. Билл заходит в какой-то большойамбар и нарывается на местных крутых ребят, устроивших там завод по переработке наркотиков под руководством колоритнейшего Кайла. Билл предлагает Кайлу 12 миллионов. Начинаетсяя крутая перестрелка. Итак, подведем итоги: Билл, прикарманивший 12 «лимонов» у босса чикагской мафии, должен спасти свою шкуру и, желательно, деньги от посланных за ним бандитов, местных наркодельцов и шерифа, у которого убили любимого помощника…

Исходник: DVD5 R5
Тип релиза: DVDRip
Контейнер: AVI

Видео: 624x448 (1,393:1), 25,000 fps, XviD ~ 1061 kbps avg, 0.152 bit/pixel
Аудио: 48 kHz, MP3 2.0, 128 kbps

Раздача от:

Общее
Полное имя : Lyudi.mafii.1999.DVDRip-745_[New-team]_by_AVP_Studio.avi
Формат : AVI
Формат/Информация : Audio Video Interleave
Размер файла : 745 Мбайт
Продолжительность : 1 ч. 26 м.
Общий поток : 1199 Кбит/сек
Программа кодирования : VirtualDubModRus 1.5.10.2 (build 2542/release)
Библиотека кодирования : VirtualDubMod build 2542/release

Видео
Идентификатор : 0
Формат : MPEG-4 Visual
Профиль формата : Advanced Simple@L5
Параметр BVOP формата : 1
Параметр QPel формата : Нет
Параметр GMC формата : Без точки перехода
Параметр матрицы формата : Выборочная
Идентификатор кодека : XVID
Идентификатор кодека/Подсказка : XviD
Продолжительность : 1 ч. 26 м.
Битрейт : 1061 Кбит/сек
Ширина : 624 пикселя
Высота : 448 пикселей
Соотношение сторон : 1,393
Частота кадров : 25,000 кадров/сек
Цветовое пространство : YUV
Субдискретизация насыщенности : 4:2:0
Битовая глубина : 8 бит
Тип развёртки : Прогрессивная
Метод сжатия : С потерями
Бит/(Пиксели*Кадры) : 0.152
Размер потока : 659 Мбайт (89%)
Библиотека кодирования : XviD 73

Аудио
Идентификатор : 1
Формат : MPEG Audio
Версия формата : Version 1
Профиль формата : Layer 3
Идентификатор кодека : 55
Идентификатор кодека/Подсказка : MP3
Продолжительность : 1 ч. 26 м.
Вид битрейта : Постоянный
Битрейт : 128 Кбит/сек
Каналы : 2 канала
Частота : 48,0 КГц
Метод сжатия : С потерями
Размер потока : 79,6 Мбайт (11%)
Выравнивание : Соединение по промежуткам
Продолжительность промежутка : 40 мс. (1,00 видеокадр)
Время предзагрузки промежутка : 504 мс.
Библиотека кодирования : LAME3.99r
Настройки программы : -m s -V 4 -q 2 -lowpass 17 -b 128



Скачать Люди.мафии.Made.Men.(Луис.Морно).[1999.боевик.триллер.комедия.DVDRip].[MVO].torrent без регистрации
Золото ЗОЛОТАЯ РАЗДАЧА! СКАЧАННОЕ НЕ ЗАСЧИТЫВАЕТСЯ! Золото
Дата: Зарегистрирован   [ Тип: внутренний ] Как тут cкачать?
MAGNET ссылка
MAGNET ссылка


Скачать .torrent

15 KB

Статус: проверено DHT
Скачан: торрент - 148 раз, раздача полностью - 8 раз
Размер: 745 MB
Оценка:  5 (Голосов: 1)
Поблагодарили: 3
Поделиться ссылкой на эту раздачу с друзьями:
В контактеFacebookОдноклассникиTwitterLivejournalМой МирLiveinternet
 

 
Показать сообщения:    


Вы не можете начинать темы
Вы не можете отвечать на сообщения
Вы не можете редактировать свои сообщения
Вы не можете удалять свои сообщения
Вы не можете голосовать в опросах
Вы не можете прикреплять файлы к сообщениям
Вы можете скачивать файлы