Loading...
Error

Скачать Гарри и Тонто / Harry and Tonto (Пол Мазурски) [1974, комедия, драма, DVDRip-AVC] [MVO]+[Sub] торрент без регистрации

 
Статистика раздачи
Размер:  1,92 GB   |    Скачан:  141 раз
Сидов:  1  [  0 KB/s  ]  
 
Автор Сообщение

Marsianka

[] 

Информация о фильме
Название: Гарри и Тонто
Оригинальное название: Harry and Tonto
Год выхода: 1974
Жанр: комедия, драма
Режиссер: Пол Мазурски / Paul Mazursky
В ролях: Арт Карни, Эллен Барстин, Джеральдин Фитцджеральд, Чиф Дэн Джордж, Лэрри Хэгмэн, Филип Брунс, Херберт Бергхоф, Джошуа Мостел, Мелани Мэйрон, Эйвон Лонг

О фильме:
Арт Карни прекрасно сыграл роль пожилого нью-йоркского вдовца, которого силой выселяют из квартиры, так как дом предназначен под снос. Для дальнейшей борьбы у него нет ни сил, ни средств, и друзей-то - всего лишь кот Тонто. С ним и отправляется он в путешествие в никуда по дорогам Америки. Добрый приятный фильм о старике, который обретает новые силы и даже будто молодеет во время этого путешествия через всю страну. В нем осталась жажда жизни во всей ее полноте. В сценарии много метких, человечных и полных юмора наблюдений, а в маленьких ролях вы узнаете многих известных актеров. Арт Карни был удостоен "Оскара" за лучшую мужскую роль.



Страна: США
Студия: Twentieth Century Fox Film Corporation
Продолжительность: 01:55:23.168
Перевод: Профессиональный (многоголосый, закадровый) Петербург 5 канал

Файл
Кодек: h.264
Качество: DVDRip-AVC
Видео: 704x448 (1.85:1) @ 822x448 (анаморф), 23.976 fps, AVC, ~2059 Kbps, 0.272 bits/pixel
Звук:
Русский, 48.0 KHz, AC3, 1 ch, 128 Kbps
Английский, 48.0 KHz, AC3, 2 ch, 192 Kbps (двойное моно)
Субтитры: Английские, VobSub
Общее
Уникальный идентификатор : 194126092517171955709068492735594387495 (0x920B53511F3005398B5D4D71E0A05827)
Полное имя : H:FilmsHarry_i_Tonto.1974.DVDRip-AVC.mkv
Формат : Matroska
Версия формата : Version 4 / Version 2
Размер файла : 1,92 Гбайт
Продолжительность : 1 ч. 55 м.
Общий поток : 2383 Кбит/сек
Дата кодирования : UTC 2014-07-23 20:43:01
Программа кодирования : mkvmerge v7.0.0 ('Where We Going') 64bit built on Jun 9 2014 15:16:27
Библиотека кодирования : libebml v1.3.0 + libmatroska v1.4.1
DURATION : 01:53:40.196000000
NUMBER_OF_FRAMES : 1726
NUMBER_OF_BYTES : 1872678
_STATISTICS_WRITING_APP : mkvmerge v7.0.0 ('Where We Going') 64bit built on Jun 9 2014 15:16:27
_STATISTICS_WRITING_DATE_UTC : 2014-07-23 20:43:01
_STATISTICS_TAGS : BPS DURATION NUMBER_OF_FRAMES NUMBER_OF_BYTES

Видео
Идентификатор : 1
Формат : AVC
Формат/Информация : Advanced Video Codec
Профиль формата : High@L4.1
Параметр CABAC формата : Да
Параметр ReFrames формата : 16 кадров
Идентификатор кодека : V_MPEG4/ISO/AVC
Продолжительность : 1 ч. 55 м.
Битрейт : 2059 Кбит/сек
Ширина : 704 пикселя
Высота : 448 пикселей
Соотношение сторон : 1,85:1
Режим частоты кадров : Постоянный
Частота кадров : 23,976 кадра/сек
Цветовое пространство : YUV
Субдискретизация насыщенности : 4:2:0
Битовая глубина : 8 бит
Тип развёртки : Прогрессивная
Бит/(Пиксели*Кадры) : 0.272
Размер потока : 1,62 Гбайт (85%)
Библиотека кодирования : x264 core 142 r2431 ac76440
Настройки программы : cabac=1 / ref=16 / deblock=1:0:0 / analyse=0x3:0x133 / me=umh / subme=10 / psy=1 / psy_rd=1.10:0.10 / mixed_ref=1 / me_range=32 / chroma_me=1 / trellis=2 / 8x8dct=1 / cqm=0 / deadzone=21,11 / fast_pskip=0 / chroma_qp_offset=-3 / threads=8 / lookahead_threads=2 / sliced_threads=0 / nr=0 / decimate=0 / interlaced=0 / bluray_compat=0 / constrained_intra=0 / bframes=14 / b_pyramid=2 / b_adapt=2 / b_bias=0 / direct=3 / weightb=1 / open_gop=0 / weightp=2 / keyint=240 / keyint_min=23 / scenecut=60 / intra_refresh=0 / rc_lookahead=60 / rc=2pass / mbtree=0 / bitrate=2059 / ratetol=1.0 / qcomp=0.60 / qpmin=0 / qpmax=69 / qpstep=4 / cplxblur=20.0 / qblur=0.5 / vbv_maxrate=50000 / vbv_bufsize=62500 / nal_hrd=none / filler=0 / ip_ratio=1.40 / pb_ratio=1.30 / aq=1:1.00
Default : Нет
Forced : Нет
Коэффициенты матрицы : BT.601
DURATION : 01:55:23.125000000
NUMBER_OF_FRAMES : 165989
NUMBER_OF_BYTES : 1781934318
_STATISTICS_WRITING_APP : mkvmerge v7.0.0 ('Where We Going') 64bit built on Jun 9 2014 15:16:27
_STATISTICS_WRITING_DATE_UTC : 2014-07-23 20:43:01
_STATISTICS_TAGS : BPS DURATION NUMBER_OF_FRAMES NUMBER_OF_BYTES

Аудио #1
Идентификатор : 2
Формат : AC-3
Формат/Информация : Audio Coding 3
Расширение режима : CM (complete main)
Параметр Endianness формата : Big
Идентификатор кодека : A_AC3
Продолжительность : 1 ч. 55 м.
Вид битрейта : Постоянный
Битрейт : 128 Кбит/сек
Каналы : 1 канал
Расположение каналов : Front: C
Частота : 48,0 КГц
Битовая глубина : 16 бит
Метод сжатия : С потерями
Размер потока : 106 Мбайт (5%)
Язык : Russian
Default : Да
Forced : Нет

Аудио #2
Идентификатор : 3
Формат : AC-3
Формат/Информация : Audio Coding 3
Расширение режима : CM (complete main)
Параметр Endianness формата : Big
Идентификатор кодека : A_AC3
Продолжительность : 1 ч. 55 м.
Вид битрейта : Постоянный
Битрейт : 192 Кбит/сек
Каналы : 2 канала
Расположение каналов : Front: L R
Частота : 48,0 КГц
Битовая глубина : 16 бит
Метод сжатия : С потерями
Размер потока : 158 Мбайт (8%)
Язык : English
Default : Нет
Forced : Нет

Текст
Идентификатор : 4
Формат : VobSub
Режим смешивания : zlib
Идентификатор кодека : S_VOBSUB
Идентификатор кодека/Информация : The same subtitle format used on DVDs
Язык : English
Default : Нет
Forced : Нет

Меню
00:00:00.000 : en:Chapter 01
00:01:57.868 : en:Chapter 02
00:02:31.501 : en:Chapter 03
00:04:07.701 : en:Chapter 04
00:07:05.368 : en:Chapter 05
00:08:35.169 : en:Chapter 06
00:13:41.537 : en:Chapter 07
00:16:57.704 : en:Chapter 08
00:24:05.371 : en:Chapter 09
00:26:28.638 : en:Chapter 10
00:30:52.705 : en:Chapter 11
00:33:11.006 : en:Chapter 12
00:37:41.173 : en:Chapter 13
00:42:35.507 : en:Chapter 14
00:49:58.708 : en:Chapter 15
00:54:11.475 : en:Chapter 16
01:01:02.009 : en:Chapter 17
01:09:06.343 : en:Chapter 18
01:15:37.177 : en:Chapter 19
01:21:19.310 : en:Chapter 20
01:24:39.377 : en:Chapter 21
01:28:04.044 : en:Chapter 22
01:38:48.013 : en:Chapter 23
01:46:40.548 : en:Chapter 24
Исходник R1 Релиз от: Temperest



Скачать Гарри.и.Тонто.Harry.and.Tonto.(Пол.Мазурски).[1974.комедия.драма.DVDRip-AVC].[MVO]+[Sub].torrent без регистрации
Золото ЗОЛОТАЯ РАЗДАЧА! СКАЧАННОЕ НЕ ЗАСЧИТЫВАЕТСЯ! Золото
Дата: Зарегистрирован   [ Тип: внутренний ] Как тут cкачать?
MAGNET ссылка
MAGNET ссылка


Скачать .torrent

20 KB

Статус: проверено DHT
Скачан: торрент - 141 раз, раздача полностью - 2 раз
Размер: 1,92 GB
Оценка:  - (Голосов: 0)
Поблагодарили: 1
Поделиться ссылкой на эту раздачу с друзьями:
В контактеFacebookОдноклассникиTwitterLivejournalМой МирLiveinternet
 

 
Показать сообщения:    


Вы не можете начинать темы
Вы не можете отвечать на сообщения
Вы не можете редактировать свои сообщения
Вы не можете удалять свои сообщения
Вы не можете голосовать в опросах
Вы не можете прикреплять файлы к сообщениям
Вы можете скачивать файлы