Loading...
Error

Скачать Постоялый двор шестой степени счастья / The inn of the sixth happiness (Марк Робсон) [1958, драма, военный, биография, экранизация, BDRip] [MVO]+[Sub]x2 торрент без регистрации

 
Статистика раздачи
Размер:  2,74 GB   |    Скачан:  112 раз

Полного источника не было: 21 минута

 
Автор Сообщение

Marsianka

[] 

Название: Постоялый двор шестой степени счастья
Оригинальное название: The Inn of the Sixth Happiness
Год выпуска: 1958
Жанр: драма, военный, биография, экранизация
Выпущено: США, Twentieth Century Fox Film Corporation
Режиссер: Марк Робсон
В ролях: Ингрид Бергман, Курд Юргенс, Роберт Донат, Майкл Дэвид, Эфин Сейлер, Рональд Сквайр, Маултри Келсолл, Ричард Уоттис, Питер Чонг, Цай Чинь, Эдит Шарп, Джоан Янг, Лиань-Шинь Янг, Берт Квук

О фильме: Великолепно смонтированный, блестяще сыгранный и поставленный фильм основан на истории жизни Глэдис Эйлуорд, современной святой, чья неутолимая жажда творить добро помогла ей пройти полсвета. Всегда мечтавшая о миссионерской деятельности горничная из Англии отправляется в Китай и открывает там приют для усталых и голодных погонщиков мулов, бродящих удалёнными горными тропами. Постепенно ей удаётся преодолеть враждебность со стороны местного населения, она завоёвывает сердце евразийского полковника и обращает в христианство властного мандарина. Но главный её подвиг - спасение сотни бездомных детей, которых она уводит с захваченной территории в безопасное место во время вторжения в Китай японцев... Этот сильный и трогательный фильм - экранная версия романа-бестселлера Алана Берджесса "Маленькая женщина".

Качество: BDRip
Видео: XviD, 1575 Кбит/с, 720x304
Аудио: Русский, английский (AC3, 6 ch, 448 Кбит/с)
Размер: 2.74 ГБ
Продолжительность: 02:37:51
Перевод: Профессиональный многоголосый (ХХ век Фокс СНГ)
Субтитры: Русские, английские (для слабослышащих)

Исходник: FREEDONOR (HDtracker)

Сравнение с исходником

Оскар, 1959 год
Номинации (1):
Лучший режиссер (Марк Робсон)

Золотой глобус, 1959 год
Победитель (1):
Лучший фильм, пропагандирующий мировое взаимопонимание

Номинации (2):
Лучшая женская роль (драма) (Ингрид Бергман)
Лучшая мужская роль (драма) (Роберт Донат)

Британская академия, 1959 год
Номинации (2):
Лучший иностранный актер (Курд Юргенс)
Лучшая иностранная актриса (Ингрид Бергман)
Общее
Полное имя : D:VideoPostojalyj dvor.1958.BDRipPostojalyj dvor.1958.BDRip.avi
Формат : AVI
Формат/Информация : Audio Video Interleave
Профиль формата : OpenDML
Размер файла : 2,24 Гбайт
Продолжительность : 2 ч. 37 м.
Общий поток : 2035 Кбит/сек
Программа кодирования : VirtualDubMod 1.5.10.2 (build 2540/release)
Библиотека кодирования : VirtualDubMod build 2540/release

Видео
Идентификатор : 0
Формат : MPEG-4 Visual
Профиль формата : Advanced Simple@L5
Параметр BVOP формата : 1
Параметр QPel формата : Нет
Параметр GMC формата : Без точки перехода
Параметр матрицы формата : Default (H.263)
Режим смешивания : Сжатый битовый поток
Идентификатор кодека : XVID
Идентификатор кодека/Подсказка : XviD
Продолжительность : 2 ч. 37 м.
Битрейт : 1575 Кбит/сек
Ширина : 720 пикселей
Высота : 304 пикселя
Соотношение сторон : 2,35:1
Частота кадров : 23,976 кадра/сек
Цветовое пространство : YUV
Субдискретизация насыщенности : 4:2:0
Битовая глубина : 8 бит
Тип развёртки : Прогрессивная
Метод сжатия : С потерями
Бит/(Пиксели*Кадры) : 0.300
Размер потока : 1,74 Гбайт (77%)
Библиотека кодирования : XviD 1.2.1 (UTC 2008-12-04)

Аудио
Идентификатор : 1
Формат : AC-3
Формат/Информация : Audio Coding 3
Расширение режима : CM (complete main)
Параметр Endianness формата : Big
Идентификатор кодека : 2000
Продолжительность : 2 ч. 37 м.
Вид битрейта : Постоянный
Битрейт : 448 Кбит/сек
Каналы : 6 каналов
Расположение каналов : Front: L C R, Side: L R, LFE
Частота : 48,0 КГц
Битовая глубина : 16 бит
Метод сжатия : С потерями
Размер потока : 506 Мбайт (22%)
Выравнивание : Разделение по промежуткам
Продолжительность промежутка : 42 мс. (1,00 видеокадр)
Время предзагрузки промежутка : 500 мс.

Общее
Полное имя : D:VideoPostojalyj dvor.1958.BDRipPostojalyj dvor.1958.eng.SDH.srt
Размер файла : 309 Кбайт

Общее
Полное имя : D:VideoPostojalyj dvor.1958.BDRipPostojalyj dvor.1958.Original.eng.ac3
Формат : AC-3
Формат/Информация : Audio Coding 3
Размер файла : 506 Мбайт
Продолжительность : 2 ч. 37 м.
Режим общего битрейта : Постоянный
Общий поток : 448 Кбит/сек

Аудио
Формат : AC-3
Формат/Информация : Audio Coding 3
Расширение режима : CM (complete main)
Параметр Endianness формата : Big
Продолжительность : 2 ч. 37 м.
Вид битрейта : Постоянный
Битрейт : 448 Кбит/сек
Каналы : 4 канала
Расположение каналов : Front: L C R, Back: C
Частота : 48,0 КГц
Битовая глубина : 16 бит
Метод сжатия : С потерями
Размер потока : 506 Мбайт (100%)

Общее
Полное имя : D:VideoPostojalyj dvor.1958.BDRipPostojalyj dvor.1958.rus.srt
Размер файла : 250 Кбайт



Скачать Постоялый.двор.шестой.степени.счастья.The.inn.of.the.sixth.happiness.(Марк.Робсон).[1958.драма.военный.биография.экранизация.BDRip].[MVO]+[Sub]x2.torrent без регистрации
Золото ЗОЛОТАЯ РАЗДАЧА! СКАЧАННОЕ НЕ ЗАСЧИТЫВАЕТСЯ! Золото
Дата: Зарегистрирован   [ Тип: внутренний ] Как тут cкачать?
MAGNET ссылка
MAGNET ссылка


Скачать .torrent

14 KB

Статус: проверено DHT
Скачан: торрент - 112 раз, раздача полностью - 2 раз
Размер: 2,74 GB
Оценка:  - (Голосов: 0)
Поблагодарили: 2
Поделиться ссылкой на эту раздачу с друзьями:
В контактеFacebookОдноклассникиTwitterLivejournalМой МирLiveinternet
 

 
Показать сообщения:    


Вы не можете начинать темы
Вы не можете отвечать на сообщения
Вы не можете редактировать свои сообщения
Вы не можете удалять свои сообщения
Вы не можете голосовать в опросах
Вы не можете прикреплять файлы к сообщениям
Вы можете скачивать файлы